<?xml version="1.0" standalone="no"?>
<!DOCTYPE svg PUBLIC "-//W3C//DTD SVG 1.1//EN" "http://www.w3.org/Graphics/SVG/1.1/DTD/svg11.dtd" >
<svg xmlns="http://www.w3.org/2000/svg">
<metadata>
This is a custom SVG webfont generated by Font Squirrel.
Copyright   : Generated in 2010 by FontLab Studio Copyright info pending
Designer    : Campivisivi
Foundry     : Campivisivi
</metadata>
<defs>
<font id="TitilliumText22LRegular" horiz-adv-x="530" >
<font-face units-per-em="1000" ascent="750" descent="-250" />
<missing-glyph horiz-adv-x="235" />
<glyph unicode=" "  horiz-adv-x="235" />
<glyph unicode="&#x09;" horiz-adv-x="235" />
<glyph unicode="&#xa0;" horiz-adv-x="235" />
<glyph unicode="!" d="M230 0v114h82v-114h-82zM232 232l-2 467h81l-2 -467h-77z" />
<glyph unicode="&#x22;" horiz-adv-x="310" d="M266 477h-70l-1 220h73zM114 477h-70l-1 220h73z" />
<glyph unicode="#" d="M519 180h-110v-180h-68v180h-154v-180h-68v180h-111v64h111v178h-111v64h111v180h68v-180h154v180h68v-180h110v-64h-110v-178h110v-64zM341 244v178h-154v-178h154z" />
<glyph unicode="$" d="M469 666l-7 -68q-69 8 -129 13l-30 -236q100 -24 140 -60.5t40 -119.5q0 -204 -217 -204h-12l-15 -115q-51 3 -51 7l14 111q-68 6 -143 18l8 68q78 -11 144 -15l32 248q-104 24 -148 63t-44 129q0 181 221 181q13 0 20 -1l14 109h51l-15 -112zM125 507q0 -56 27.5 -79.5 t100.5 -41.5l29 228h-10q-147 0 -147 -107zM408 192q0 49 -25.5 72t-88.5 38l-31 -239h2q73 0 108 30.5t35 98.5z" />

<glyph unicode="%" d="M411 280q114 0 114 -138q0 -141 -114 -141q-113 0 -113 142q0 137 113 137zM121 27l256 672l47 -23l-255 -672zM358 143q0 -48 11.5 -69.5t41.5 -21.5t42 22t12 68t-12 66.5t-42 20.5t-41.5 -20.5t-11.5 -65.5zM131 702q114 0 114 -139q0 -141 -114 -141q-113 0 -113 142 q0 138 113 138zM78 564q0 -47 11.5 -69t41.5 -22q31 0 42.5 21.5t11.5 68.5q0 46 -11.5 66.5t-42.5 20.5q-30 0 -41.5 -20.5t-11.5 -65.5z" />
<glyph unicode="&#x26;" horiz-adv-x="700" d="M323 702q86 0 129.5 -41t43.5 -116q0 -69 -34.5 -111t-116.5 -81l143 -143q20 65 28 134l73 -1q-14 -104 -43 -182l129 -124l-47 -51l-120 113q-43 -60 -96.5 -87t-130.5 -27q-233 0 -233 219q0 81 37.5 127t115.5 76q-31 36 -41 66t-10 77q0 70 45.5 111t127.5 41z M284 56q57 0 97 21.5t71 70.5l-203 206q-66 -22 -95.5 -56t-29.5 -93q0 -149 160 -149zM225 542q0 -68 45 -113l27 -28q69 30 96.5 59t27.5 80q0 92 -98 92t-98 -90z" />
<glyph unicode="'" horiz-adv-x="100" d="M12 469l-2 226h76l-5 -226h-69z" />
<glyph unicode="(" horiz-adv-x="260" d="M133 750h79q-11 -29 -26.5 -77.5t-42 -168t-26.5 -203.5q0 -167 87 -405l8 -21h-79q-11 25 -27 68t-43 156t-27 202t24 201t48 180z" />
<glyph unicode=")" horiz-adv-x="260" d="M36 750h79q11 -27 27 -72t43 -161.5t27 -205.5t-24 -198t-48 -173l-25 -65h-79q11 28 26.5 74.5t42 162.5t26.5 199q0 84 -23.5 193.5t-47.5 177.5z" />
<glyph unicode="*" d="M442 511h-131l40 -125l-48 -15l-42 126l-107 -79l-30 40l108 79l-107 77l31 42l105 -76l42 124l49 -16l-40 -127h130v-50z" />
<glyph unicode="+" horiz-adv-x="458" d="M-23 232v70h215v214h70v-214h217v-70h-217v-216h-70v216h-215z" />
<glyph unicode="," horiz-adv-x="170" d="M26 -123l46 230h81l-55 -230h-72z" />
<glyph unicode="-" horiz-adv-x="440" d="M64 244v74h312v-74h-312z" />
<glyph unicode="." horiz-adv-x="248" d="M77 0v114h81v-114h-81z" />
<glyph unicode="/" d="M88 15l279 694l71 -26l-279 -693z" />
<glyph unicode="0" d="M264 671q82 0 133 -30.5t79.5 -109t28.5 -211.5q0 -93 -16 -158t-48 -102t-74.5 -53.5t-101.5 -16.5q-121 0 -181.5 73.5t-60.5 255.5q0 195 60 273.5t181 78.5zM264 598q-85 0 -122 -59.5t-37 -219.5q0 -101 19 -158t52.5 -77.5t88.5 -20.5q83 0 120.5 54.5t37.5 202.5 q0 159 -36.5 218.5t-122.5 59.5z" />
<glyph unicode="1" d="M65 521l209 139h73v-660h-77v572l-169 -113z" />
<glyph unicode="2" d="M479 0h-422v71l191 198q38 39 56 59t39.5 49t30 54.5t8.5 54.5q0 59 -35 84.5t-109 25.5q-32 0 -74.5 -5.5t-69.5 -10.5l-26 -6l-6 71q98 26 191 26q106 0 157.5 -42.5t51.5 -134.5q0 -70 -30 -121.5t-104 -126.5l-168 -172h319v-74z" />
<glyph unicode="3" d="M61 647q103 24 195 24q115 0 163 -41t48 -131q0 -24 -6.5 -45.5t-14.5 -35.5t-21.5 -27t-21.5 -18.5t-21 -13.5t-14 -8q58 -21 86.5 -54.5t28.5 -107.5q0 -101 -52 -150t-163 -49q-46 0 -100.5 6t-85.5 12l-32 5l8 70q108 -19 202 -19q143 0 143 122q0 115 -135 120h-134 v70h133q43 0 81.5 32.5t38.5 82.5q0 57 -32 81.5t-103 24.5l-183 -19z" />
<glyph unicode="4" d="M350 -4v128h-321v62l188 474h84l-184 -463h233v211h77v-211h83v-73h-83v-128h-77z" />
<glyph unicode="5" d="M78 660h384v-73h-314l-17 -209q77 38 146 38q212 0 212 -198q0 -111 -58 -169t-163 -58q-45 0 -99.5 7t-86.5 14l-33 7l9 69q118 -24 207 -24q66 0 105 39.5t39 111.5q0 129 -139 129q-35 0 -72 -10t-57 -20l-20 -9l-63 11z" />

<glyph unicode="6" d="M472 655l-7 -70q-90 12 -174 12q-86 0 -131.5 -57t-46.5 -166l25 10q26 9 67.5 19t73.5 10q221 0 221 -205q0 -105 -60 -161.5t-171 -56.5q-236 0 -236 343q0 338 258 338zM273 342q-77 -3 -161 -37q4 -243 157 -243q74 0 113 37t39 109q0 134 -148 134z" />
<glyph unicode="7" d="M55 587v73h410v-101l-256 -572l-72 23l248 553v24h-330z" />
<glyph unicode="8" d="M268 671q110 0 174.5 -43.5t64.5 -128.5q0 -62 -25 -94.5t-85 -59.5q60 -27 90 -63.5t30 -102.5q0 -189 -249 -189q-246 0 -246 178q0 71 27.5 108t86.5 69q-54 27 -78.5 61.5t-24.5 93.5q0 84 62.5 127.5t172.5 43.5zM268 63q167 0 167 124q0 53 -29.5 78.5t-87.5 41.5 h-105q-55 -15 -82 -44t-27 -82q0 -118 164 -118zM269 598q-154 0 -154 -107q0 -44 23.5 -70.5t74.5 -45.5h105q54 17 80.5 44t26.5 71q0 108 -156 108z" />
<glyph unicode="9" d="M59 5l7 70q90 -12 174 -12q181 0 182 221q-100 -36 -172 -36q-216 0 -216 203q0 103 62 161.5t167 58.5q238 0 238 -343q0 -184 -66 -261t-195 -77zM256 319q31 0 72.5 8.5t67.5 17.5l27 9q-2 114 -40.5 179t-119.5 65q-69 0 -109 -39t-40 -108q0 -132 142 -132z" />
<glyph unicode=":" horiz-adv-x="177" d="M60 322v114h82v-114h-82zM60 0v114h82v-114h-82z" />
<glyph unicode=";" horiz-adv-x="198" d="M24 -119l49 234h83l-64 -234h-68zM67 322v114h82v-114h-82z" />
<glyph unicode="&#x3c;" d="M410 480l-275 -168l275 -175v-81q-25 13 -171.5 105.5t-175.5 109.5v78l347 210v-79z" />
<glyph unicode="=" d="M33 339v69h457v-69h-457zM34 151v69h457v-69h-457z" />
<glyph unicode="&#x3e;" d="M338 312l-275 168v79l347 -210v-78q-29 -17 -175.5 -109.5t-171.5 -105.5v81z" />
<glyph unicode="?" horiz-adv-x="386" d="M386 537q0 -47 -19.5 -87t-47.5 -66.5t-56 -49t-47.5 -47.5t-19.5 -51v-38h-79v41q0 35 19.5 66.5t47.5 55l55.5 47.5t47 55.5t19.5 66.5q0 57 -30.5 80.5t-101.5 23.5q-22 0 -61.5 -6t-67.5 -12l-28 -6l-9 74q114 27 168 27q108 0 159 -40t51 -134zM116 1v114h82v-114 h-82z" />
<glyph unicode="@" horiz-adv-x="985" d="M933 305v-17q0 -77 -8.5 -131t-22 -86.5t-37 -50.5t-48 -24t-59.5 -6q-48 0 -74.5 10.5t-41.5 44.5q-102 -54 -175 -54q-37 0 -64.5 9t-55 34t-42 78t-14.5 131q0 135 44 200.5t158 65.5q20 0 49 -6.5t48 -12.5l19 -6v16h75v-200q0 -116 6.5 -165t20 -62t47.5 -13 q27 0 42.5 6.5t30 28t20.5 69t6 124.5v18q0 184 -81.5 264.5t-271.5 80.5q-193 0 -284.5 -92t-91.5 -298q0 -218 87.5 -305t288.5 -87l143 9l4 -72q-99 -9 -147 -9q-116 0 -196.5 22t-140 74.5t-87.5 143t-28 224.5q0 241 114.5 351.5t337.5 110.5t326 -102.5t103 -315.5z M471 63q59 0 148 42q-10 57 -10 171v143q-61 20 -104 20q-82 0 -110.5 -45t-28.5 -153q0 -105 29 -141.5t76 -36.5z" />
<glyph unicode="A" horiz-adv-x="604" d="M29 0l190 696h169l187 -695h-76l-53 174h-290l-50 -175h-77zM277 625l-103 -376h256l-103 376h-50z" />
<glyph unicode="B" horiz-adv-x="618" d="M90 696h250q206 0 206 -172q0 -68 -22 -106.5t-66 -59.5q52 -18 80.5 -55t28.5 -107q0 -105 -55 -150.5t-159 -45.5h-263v696zM345 318h-179v-247h184q67 0 102.5 29.5t35.5 99.5q0 118 -143 118zM337 625h-171v-237h178q64 0 93.5 31.5t29.5 94.5q0 59 -31.5 85 t-98.5 26z" />
<glyph unicode="C" horiz-adv-x="536" d="M491 83l3 -70q-111 -23 -190 -23q-76 0 -126.5 22.5t-78 70.5t-38 110t-10.5 153q0 188 53.5 274t199.5 86q40 0 88 -6t76 -12l27 -5l-4 -69q-109 17 -179 17q-110 0 -146 -65t-36 -220q0 -153 36 -217t148 -64q28 0 72 4.5t74 8.5z" />
<glyph unicode="D" horiz-adv-x="642" d="M337 0h-247v696h247q141 0 198.5 -88t57.5 -249q0 -80 -12 -141t-39.5 -112t-79 -78.5t-125.5 -27.5zM513 359q0 59 -7.5 103.5t-26.5 82.5t-54.5 58t-87.5 20h-171v-550h171q176 0 176 286z" />
<glyph unicode="E" horiz-adv-x="564" d="M90 0v696h420v-73h-344v-235h284v-72h-284v-243h344v-73h-420z" />
<glyph unicode="F" horiz-adv-x="553" d="M90 0v696h421v-73h-345v-269h285v-73h-285v-281h-76z" />

<glyph unicode="G" horiz-adv-x="608" d="M354 285v70h191v-341q-142 -24 -225 -24q-150 0 -209 88t-59 269q0 183 58.5 271t207.5 88q47 0 103.5 -6.5t90.5 -13.5l33 -6l-3 -69q-124 21 -215 21q-114 0 -154.5 -66.5t-40.5 -218.5q0 -151 40 -217t154 -66q17 0 37 1.5t38 3t33 3.5t24.5 3.5t10.5 1.5v208h-115z " />
<glyph unicode="H" horiz-adv-x="685" d="M519 0v314h-352v-314h-77v696h77v-308h352v308h76v-696h-76z" />
<glyph unicode="I" horiz-adv-x="247" d="M85 0v696h77v-696h-77z" />
<glyph unicode="J" horiz-adv-x="308" d="M222 697q0 -106 0.5 -293.5t0.5 -294.5q0 -62 -10 -98.5t-36.5 -54.5t-57 -23t-86.5 -5v72q71 0 92 19t21 99v579h76z" />
<glyph unicode="K" horiz-adv-x="595" d="M466 0l-184 306l-115 -4v-302h-77v696h77v-321l113 4l177 317h89l-198 -348l209 -348h-91z" />
<glyph unicode="L" horiz-adv-x="513" d="M471 0h-381v696h77v-622h304v-74z" />
<glyph unicode="M" horiz-adv-x="850" d="M90 0v696h134l201 -585l202 585h133v-696h-77v606h-14l-202 -581h-85l-201 581h-14v-606h-77z" />
<glyph unicode="N" horiz-adv-x="693" d="M90 0v696h138l276 -606h22v606h77v-696h-135l-280 606h-21v-606h-77z" />
<glyph unicode="O" horiz-adv-x="651" d="M326 63q115 0 154.5 64.5t39.5 216.5q0 148 -41 218.5t-153 70.5q-113 0 -153.5 -69.5t-40.5 -219.5q0 -149 39.5 -215t154.5 -66zM326 -10q-155 0 -214.5 85t-59.5 269q0 183 60.5 272.5t213.5 89.5t213 -89t60 -273q0 -187 -59 -270.5t-214 -83.5z" />
<glyph unicode="P" horiz-adv-x="606" d="M343 233h-176v-233h-77v696h253q113 0 167 -54.5t54 -168.5q0 -116 -55 -178t-166 -62zM167 307h175q143 0 143 166q0 77 -34 113t-109 36h-175v-315z" />
<glyph unicode="Q" horiz-adv-x="651" d="M497 -145l-88 144q-36 -9 -83 -9q-155 0 -214.5 85t-59.5 269q0 183 60.5 272.5t213.5 89.5t213 -89t60 -273q0 -128 -25.5 -205t-88.5 -114l84 -136zM326 63q115 0 154.5 64.5t39.5 216.5q0 148 -41 218.5t-153 70.5q-113 0 -153.5 -69.5t-40.5 -219.5q0 -149 39.5 -215 t154.5 -66z" />
<glyph unicode="R" horiz-adv-x="624" d="M488 0l-125 263h-196v-263h-77v696h256q113 0 167 -50.5t54 -161.5q0 -162 -127 -201l133 -283h-85zM488 484q0 72 -34.5 105.5t-107.5 33.5h-179v-287h180q141 0 141 148z" />
<glyph unicode="S" horiz-adv-x="534" d="M475 687l-7 -70q-138 16 -196 16q-151 0 -151 -110q0 -64 34.5 -87.5t135.5 -45.5q111 -25 155 -63t44 -126q0 -210 -224 -210l-213 21l8 70q133 -17 204 -17q75 0 111 31t36 102q0 56 -32.5 80.5t-121.5 41.5q-117 25 -165.5 65t-48.5 136q0 186 228 186z" />
<glyph unicode="T" horiz-adv-x="492" d="M-4 622v74h500v-74h-211v-622h-76v622h-213z" />
<glyph unicode="U" horiz-adv-x="640" d="M155 210q0 -145 162 -145q83 0 126 33.5t43 111.5v486h76v-486q0 -115 -61.5 -167t-183.5 -52q-118 0 -178.5 51.5t-60.5 167.5v486h77v-486z" />
<glyph unicode="V" horiz-adv-x="593" d="M484 696h80l-181 -696h-171l-183 696h80l162 -623h53z" />
<glyph unicode="W" horiz-adv-x="900" d="M37 696h79l127 -619h29l134 613h87l138 -613h29l124 619h79l-148 -696h-140l-125 581l-123 -581h-139z" />

<glyph unicode="X" horiz-adv-x="581" d="M117 696l174 -292l173 292h87l-207 -351l207 -345h-87l-172 288l-175 -288h-87l210 345l-210 351h87z" />
<glyph unicode="Y" horiz-adv-x="552" d="M316 298v-298h-77v299l-220 397h86l172 -312l170 312h86z" />
<glyph unicode="Z" horiz-adv-x="570" d="M60 622v74h450v-95l-357 -509v-19h357v-74h-450v95l357 508v20h-357z" />
<glyph unicode="[" horiz-adv-x="300" d="M251 749v-72h-134v-728h134v-72h-210v872h210z" />
<glyph unicode="\" horiz-adv-x="537" d="M460 19l-81 -33l-308 692l81 35z" />
<glyph unicode="]" horiz-adv-x="300" d="M41 677v72h210v-872h-210v72h134v728h-134z" />
<glyph unicode="^" d="M401 325l-139 261l-134 -261h-80l175 335h78l181 -335h-81z" />
<glyph unicode="_" horiz-adv-x="520" d="M27 -14h428v-70h-428v70z" />
<glyph unicode="`" horiz-adv-x="236" d="M25 749l218 -94l-24 -58l-220 86z" />
<glyph unicode="a" horiz-adv-x="522" d="M433 347v-246q2 -39 58 -46l-3 -65q-81 0 -118 38q-90 -38 -185 -38q-65 0 -100.5 40t-35.5 113q0 71 37 106t115 42l158 15v41q0 91 -87 91l-191 -13l-3 65q120 20 197 20q80 0 119 -39.5t39 -123.5zM359 245l-148 -12q-86 -8 -86 -88q0 -43 18.5 -66.5t52.5 -23.5 t74.5 7.5t64.5 15.5l24 7v160z" />
<glyph unicode="b" horiz-adv-x="541" d="M308 510q101 0 142 -57.5t41 -193.5q0 -150 -50.5 -209.5t-185.5 -59.5q-27 0 -69 3l-70 5l-29 3v717h75v-241q75 33 146 33zM254 57q98 0 129.5 44.5t31.5 155.5q0 100 -24.5 142t-89.5 42q-66 0 -139 -27v-351q65 -6 92 -6z" />
<glyph unicode="c" horiz-adv-x="437" d="M257 510q20 0 54 -4t58 -8l24 -3l-2 -65q-80 9 -118 9q-85 0 -115.5 -39.5t-30.5 -140.5q0 -114 28.5 -156.5t117.5 -42.5l119 9l3 -65q-94 -14 -139 -14q-118 0 -162 59.5t-44 209.5q0 136 47.5 193.5t159.5 57.5z" />
<glyph unicode="d" horiz-adv-x="543" d="M456 700v-700h-75v33q-77 -43 -152 -43q-40 0 -69.5 10.5t-56 37t-40 79.5t-13.5 131q0 135 48.5 198.5t160.5 63.5q57 0 122 -13v203h75zM239 59q30 0 65.5 9.5t55.5 18.5l21 9v335q-83 11 -118 11q-76 0 -107 -47t-31 -149q0 -58 9 -96.5t26.5 -57t35.5 -26t43 -7.5z " />
<glyph unicode="e" horiz-adv-x="507" d="M258 58q33 0 79 2.5t75 4.5l29 2l2 -61q-113 -16 -194 -16q-109 0 -154 62.5t-45 194.5q0 263 210 263q101 0 151 -56.5t50 -177.5l-4 -58h-331q1 -82 30.5 -121t101.5 -39zM126 279h260q0 89 -30 126.5t-96 37.5q-134 0 -134 -164z" />
<glyph unicode="f" horiz-adv-x="334" d="M165 432v-432h-74v432h-63v68h63v45q0 106 29.5 144t104.5 38l101 -7l-1 -62q-56 2 -85 2q-43 0 -59 -24t-16 -92v-44h146v-68h-146z" />
<glyph unicode="g" horiz-adv-x="518" d="M262 -239q-120 0 -167.5 33t-47.5 122q0 41 18 66.5t61 57.5q-27 18 -27 69q0 8 8.5 28t16.5 35l8 16q-78 36 -78 151q0 171 186 171l104 -13l146 3v-64h-90q31 -33 31 -97q0 -95 -46 -132t-148 -37q-27 0 -49 4q-18 -44 -18 -57q0 -31 19 -38.5t102 -7.5q110 0 152 -30 t42 -117q0 -163 -223 -163zM286 5l-109 5q-32 -24 -44 -42t-12 -46q0 -53 29.5 -73.5t112.5 -20.5q76 0 111 22t35 71q0 54 -25.5 69t-97.5 15zM237 234q64 0 91.5 23.5t27.5 81.5q0 63 -25.5 84.5t-91.5 21.5q-57 0 -83.5 -24t-26.5 -82q0 -56 23.5 -80.5t84.5 -24.5z" />
<glyph unicode="h" horiz-adv-x="565" d="M162 0h-75v730h75v-254q84 34 154 34q101 0 135 -54.5t34 -194.5v-261h-75v260q0 104 -20 142.5t-85 38.5q-30 0 -65.5 -7.5t-56.5 -14.5l-21 -7v-412z" />

<glyph unicode="i" horiz-adv-x="236" d="M81 0v500h74v-500h-74zM81 613v87h74v-87h-74z" />
<glyph unicode="j" horiz-adv-x="248" d="M93 6v494h74v-495q0 -92 -33 -138t-133 -97l-33 63q78 45 101.5 76t23.5 97zM93 616v88h74v-88h-74z" />
<glyph unicode="k" horiz-adv-x="497" d="M162 0h-75v718h75v-419l77 4l149 197h84l-167 -230l170 -270h-85l-150 229l-78 -4v-225z" />
<glyph unicode="l" horiz-adv-x="242" d="M84 0v718h74v-718h-74z" />
<glyph unicode="m" horiz-adv-x="864" d="M162 0h-75v500h75v-34q60 36 125 40q35 4 55 1q62 -6 92 -42q119 45 181 45q100 0 134.5 -54t34.5 -196v-260h-75v237q0 122 -18.5 163t-86.5 41q-66 0 -140 -37q12 -34 12 -144v-260h-75v258q0 108 -19.5 145.5t-85.5 37.5q-30 0 -63.5 -9.5t-52.5 -18.5l-18 -9v-404z " />
<glyph unicode="n" horiz-adv-x="568" d="M162 0h-75v500h75v-33q84 43 155 43q100 0 134 -54.5t34 -195.5v-260h-74v259q0 105 -20 143.5t-86 38.5t-143 -37v-404z" />
<glyph unicode="o" horiz-adv-x="528" d="M265 510q112 0 162.5 -62.5t50.5 -192.5q0 -137 -46 -201t-167 -64q-123 0 -169 62t-46 205q0 132 49.5 192.5t165.5 60.5zM265 57q83 0 109.5 45t26.5 153q0 100 -32 143.5t-104 43.5q-79 0 -108.5 -40.5t-29.5 -144.5q0 -112 27 -156t111 -44z" />
<glyph unicode="p" horiz-adv-x="542" d="M87 -222v722h75v-35q75 45 149 45q95 0 138 -60t43 -194q0 -146 -50.5 -206t-167.5 -60q-61 0 -112 11v-223h-75zM301 441q-65 0 -139 -39v-334q48 -11 108 -11q82 0 114 45t32 156q0 98 -29 140.5t-86 42.5z" />
<glyph unicode="q" horiz-adv-x="537" d="M249 -10q-107 0 -153 62.5t-46 188.5q0 138 51 203.5t177 65.5l172 -10v-722h-75v239q-54 -27 -126 -27zM279 442q-87 0 -120 -47.5t-33 -152.5q0 -93 28 -139t95 -46t126 31v350q-65 4 -96 4z" />
<glyph unicode="r" horiz-adv-x="356" d="M87 0v500h75v-66q77 58 174 76v-78q-42 -8 -85.5 -25t-66.5 -31l-22 -13v-363h-75z" />
<glyph unicode="s" horiz-adv-x="489" d="M416 491l-2 -65q-111 16 -175 16q-108 0 -108 -75q0 -35 24 -50t98 -26q103 -16 141.5 -45.5t38.5 -99.5q0 -84 -49.5 -120t-145.5 -36l-176 19l4 65q114 -17 165 -17q65 0 95.5 18.5t30.5 67.5q0 38 -24.5 53t-101.5 27q-98 15 -137 43t-39 98q0 76 51.5 111t128.5 35z " />
<glyph unicode="t" horiz-adv-x="363" d="M331 432h-158v-233q0 -86 12 -112.5t60 -26.5l89 5l4 -65q-66 -11 -101 -11q-79 0 -109 38.5t-30 144.5v260h-71v68h71v153h75v-153h158v-68z" />
<glyph unicode="u" horiz-adv-x="559" d="M397 500h74v-500h-74v32q-78 -42 -148 -42q-102 0 -135.5 53t-33.5 196v261h74v-260q0 -109 19 -146t87 -37q29 0 63.5 9.5t54.5 18.5l19 9v406z" />
<glyph unicode="v" horiz-adv-x="482" d="M24 500h78l120 -436h37l122 436h76l-142 -500h-150z" />
<glyph unicode="w" horiz-adv-x="757" d="M28 500h75l100 -432h16l120 422h79l119 -422h16l101 432h75l-119 -500h-127l-105 391l-107 -391h-125z" />
<glyph unicode="x" horiz-adv-x="460" d="M27 500h81l122 -196l122 196h82l-157 -250l157 -250h-82l-122 195l-121 -195h-82l156 250z" />
<glyph unicode="y" horiz-adv-x="482" d="M24 500h75l125 -428h34l125 428h75l-208 -722h-75l64 222h-73z" />

<glyph unicode="z" horiz-adv-x="479" d="M54 432v68h371v-68l-281 -364h281v-68h-371v68l281 364h-281z" />
<glyph unicode="{" horiz-adv-x="307" d="M189 170q0 -3 -3.5 -49t-3.5 -67q0 -55 23.5 -80.5t90.5 -29.5l-1 -72q-102 4 -147 45t-45 130q0 21 3.5 66t3.5 56q0 44 -22 69.5t-78 40.5v64q56 14 78 39t22 69q0 13 -3.5 60.5t-3.5 67.5q0 92 44.5 132t147.5 44l1 -72q-67 -4 -90.5 -28.5t-23.5 -79.5q0 -17 3.5 -63 t3.5 -60q0 -62 -22 -92t-78 -48q55 -18 77.5 -49t22.5 -93z" />
<glyph unicode="|" d="M222 -127v847h76v-847h-76z" />
<glyph unicode="}" horiz-adv-x="307" d="M117 170q0 62 22.5 93t77.5 49q-56 18 -78 48t-22 92q0 14 3.5 60t3.5 63q0 55 -24 79.5t-90 28.5l1 72q103 -4 147.5 -44t44.5 -132q0 -20 -3.5 -67.5t-3.5 -60.5q0 -44 22 -69t78 -39v-64q-56 -15 -78 -40.5t-22 -69.5q0 -11 3.5 -56t3.5 -66q0 -89 -45 -130t-147 -45 l-1 72q66 4 90 29.5t24 80.5q0 20 -3.5 60.5t-3.5 55.5z" />
<glyph unicode="~" d="M459 377l7 -72q-6 -6 -16 -14.5t-38 -23t-52 -14.5q-31 0 -99 25t-88 25q-19 0 -44 -12t-41 -24l-16 -12l-8 71q6 6 17 15t40.5 24t54.5 15q31 0 97.5 -25t87.5 -25q17 0 41.5 12t40.5 24z" />
<glyph unicode="&#xa1;" d="M312 499v-114h-82v114h82zM310 267l2 -467h-81l2 467h77z" />
<glyph unicode="&#xa2;" horiz-adv-x="437" d="M218 -81v117q-93 5 -135.5 52t-42.5 160q0 208 177 217v118h66v-121l101 -10l-3 -67q-92 7 -130 7q-74 0 -103 -32t-29 -112q0 -81 28.5 -110t110.5 -29l124 6l3 -67q-59 -7 -101 -10v-119h-66z" />
<glyph unicode="&#xa3;" d="M447 667v-65q-83 11 -124 11q-48 0 -65 -28t-17 -108v-59h170v-66h-170v-286h154l76 16l13 -64l-82 -18h-320v66h85v286h-67v66h67v64q0 115 37.5 156.5t116.5 41.5q20 0 51.5 -3t53.5 -7z" />
<glyph unicode="&#xa4;" horiz-adv-x="529" d="M434 30l-70 70q-45 -29 -99 -29t-99 29l-70 -70l-53 53l70 70q-29 45 -29 99t29 99l-70 70l53 53l70 -71q45 29 99 29t99 -29l70 71l53 -53l-71 -70q29 -45 29 -99t-29 -99l71 -70zM187 174q32 -32 78 -32t78 32q31 32 31 78t-31 78q-32 32 -78 32t-78 -32 q-31 -32 -31 -78t31 -78z" />
<glyph unicode="&#xa5;" horiz-adv-x="540" d="M47 315v65h140l-174 280h86l172 -270l170 270h86l-171 -280h136v-65h-174l-8 -19v-64h183v-65h-183v-167h-77v167h-185v65h185v64l-8 19h-178z" />
<glyph unicode="&#xa6;" d="M220 750h75v-382h-75v382zM220 254h75v-382h-75v382z" />
<glyph unicode="&#xa7;" d="M438 634l-4 -63q-109 15 -157 15q-64 0 -93 -22t-29 -70t30.5 -66.5t112.5 -33.5q88 -17 124.5 -46t36.5 -99q0 -67 -44 -131q37 -32 37 -100q0 -168 -191 -168q-28 0 -72 4t-73 8l-30 5l7 63q109 -15 164 -15q123 0 123 99q0 45 -29 60.5t-115 31.5q-90 17 -129 48 t-39 101q0 39 21 76t37 50q-44 32 -44 111q0 159 192 159zM268 332q-65 11 -92 22q-33 -55 -33 -88q0 -44 25 -63t88 -30q72 -14 102 -27q5 7 15 36.5t10 57.5q0 44 -25.5 62t-89.5 30z" />
<glyph unicode="&#xa8;" horiz-adv-x="236" d="M-12 625v90h72v-90h-72zM188 625v90h73v-90h-73z" />
<glyph unicode="&#xa9;" d="M10 434q0 112 73 189t182 77q111 0 183.5 -77.5t72.5 -188.5q0 -112 -72.5 -188.5t-184.5 -76.5q-109 0 -181.5 77t-72.5 188zM54 434q0 -93 60 -157t151 -64t151.5 64t60.5 157t-60.5 157.5t-151.5 64.5q-90 0 -150.5 -64.5t-60.5 -157.5zM340 349l1 -61q-37 -8 -75 -8 q-65 0 -91.5 38t-26.5 117q0 76 26.5 114t91.5 38l75 -6l-1 -61q-35 6 -74 6q-35 0 -46.5 -22.5t-11.5 -68.5q0 -93 58 -93z" />
<glyph unicode="&#xaa;" horiz-adv-x="518" d="M346 571v-134q6 -20 37 -23l-2 -28q-32 1 -54 22q-63 -22 -119 -22q-31 0 -50.5 22t-19.5 58q0 70 75 76l102 7v23q0 32 -12 43.5t-40 11.5l-104 -7l-2 31q69 8 106 8q43 0 63 -20.5t20 -67.5zM315 520l-97 -6q-25 -2 -36 -13.5t-11 -36.5q0 -46 40 -46q20 0 46 4t42 8 l16 5v85z" />
<glyph unicode="&#xab;" horiz-adv-x="586" d="M279 344l-124 -94l124 -105v-78l-189 151v60l189 143v-77zM517 344l-125 -94l125 -105v-78l-190 151v60l190 143v-77z" />
<glyph unicode="&#xac;" d="M61 346h410v-233h-74v161h-336v72z" />

<glyph unicode="&#xae;" d="M2 434q0 115 73 194t190 79t191.5 -79t74.5 -194q0 -114 -75 -193.5t-191 -79.5q-117 0 -190 79t-73 194zM46 434q0 -95 63 -162t156 -67t156.5 67t63.5 162q0 96 -63.5 163t-156.5 67q-94 0 -156.5 -66.5t-62.5 -163.5zM322 276l-53 119h-58v-119h-57v315h105 q62 0 90 -21.5t28 -73.5q0 -73 -50 -94l57 -126h-62zM211 543v-100h59q27 0 39 11t12 39q0 27 -15 38.5t-47 11.5h-48z" />
<glyph unicode="&#xaf;" horiz-adv-x="236" d="M-22 634v66h291v-66h-291z" />
<glyph unicode="&#xb0;" d="M102 564q0 63 39.5 102.5t102.5 39.5t102.5 -39.5t39.5 -102.5t-39.5 -102t-102.5 -39t-102.5 39t-39.5 102zM153 564q0 -41 25 -66.5t66 -25.5t67 25.5t26 66.5t-26 67t-67 26t-66 -26t-25 -67z" />
<glyph unicode="&#xb1;" d="M39 318v69h192v130h70v-130h196v-69h-196v-130h-70v130h-192zM40 129h458v-69h-458v69z" />
<glyph unicode="&#xb2;" horiz-adv-x="265" d="M232 478h-210v56l88 86q51 49 51 83q0 36 -49 36l-84 -10l-3 59q60 12 103 12q52 0 76 -22t24 -69q0 -57 -62 -113l-61 -60h127v-58z" />
<glyph unicode="&#xb3;" horiz-adv-x="265" d="M29 790q59 10 102 10q106 0 106 -84q0 -50 -40 -75q25 -8 36.5 -24t11.5 -52q0 -97 -107 -97q-22 0 -50 2.5t-46 5.5l-17 2l5 56q56 -7 100 -7q49 0 49 41q0 42 -46 42h-66v54h65q14 0 26 13t12 31q0 33 -45 33l-91 -7z" />
<glyph unicode="&#xb4;" horiz-adv-x="268" d="M24 655l218 95l27 -70l-220 -86z" />
<glyph unicode="&#xb5;" d="M76 -238v738h75v-270q0 -102 19.5 -137.5t85.5 -35.5q30 0 64 9.5t54 18.5l19 9v406h74v-500h-74v32q-78 -42 -148 -42q-66 0 -94 32v-260h-75z" />
<glyph unicode="&#x3bc;" d="M76 -238v738h75v-270q0 -102 19.5 -137.5t85.5 -35.5q30 0 64 9.5t54 18.5l19 9v406h74v-500h-74v32q-78 -42 -148 -42q-66 0 -94 32v-260h-75z" />
<glyph unicode="&#xb6;" d="M384 0v639h-116v-639h-67v332h-7q-81 0 -133.5 51t-52.5 132t53 133t134 52h329v-61h-73v-639h-67z" />
<glyph unicode="&#xb7;" horiz-adv-x="248" d="M77 245v114h81v-114h-81z" />
<glyph unicode="&#xb8;" horiz-adv-x="833" d="M563 -127q0 -90 -94 -90q-20 0 -41.5 1.5t-33.5 3.5l-11 2l3 48q39 -3 66 -3q44 0 44 38q0 34 -44 34h-42v94h41v-50q59 0 85.5 -16t26.5 -62z" />
<glyph unicode="&#xb9;" horiz-adv-x="265" d="M30 720l102 70h60v-312h-64v242l-68 -47z" />
<glyph unicode="&#xba;" horiz-adv-x="526" d="M259 659q58 0 85.5 -32.5t27.5 -102.5q0 -138 -113 -138q-115 0 -115 138q0 135 115 135zM259 418q43 0 61 24.5t18 81.5t-18 80t-61 23t-62 -23.5t-19 -79.5q0 -57 19 -81.5t62 -24.5z" />
<glyph unicode="&#xbb;" horiz-adv-x="586" d="M431 250l-124 94v77l189 -143v-60l-189 -151v78zM194 250l-125 94v77l190 -143v-60l-190 -151v78z" />
<glyph unicode="&#xbf;" horiz-adv-x="386" d="M8 -37q0 47 19.5 87t47.5 66.5t56 49t47.5 47.5t19.5 51v38h79v-41q0 -35 -19.5 -66.5t-47.5 -55.5l-55.5 -47.5t-47 -55t-19.5 -66.5q0 -57 30.5 -80.5t101.5 -23.5q22 0 61.5 6t67.5 12l28 6l9 -74q-114 -27 -168 -27q-108 0 -159 40t-51 134zM278 499v-114h-82v114h82 z" />
<glyph unicode="&#xc0;" horiz-adv-x="604" d="M31 0l190 696h169l187 -695h-76l-53 174h-290l-50 -175h-77zM279 625l-103 -376h256l-103 376h-50zM192 935l218 -94l-25 -62l-221 87z" />

<glyph unicode="&#xc1;" horiz-adv-x="604" d="M31 0l190 696h169l187 -695h-76l-53 174h-290l-50 -175h-77zM279 625l-103 -376h256l-103 376h-50zM186 855l218 95l27 -70l-220 -86z" />
<glyph unicode="&#xc2;" horiz-adv-x="604" d="M31 0l190 696h169l187 -695h-76l-53 174h-290l-50 -175h-77zM279 625l-103 -376h256l-103 376h-50zM147 792l125 148h60l126 -148h-83l-72 84l-73 -84h-83z" />
<glyph unicode="&#xc3;" horiz-adv-x="604" d="M31 0l190 696h168l188 -695h-77l-52 174h-290l-51 -175h-76zM279 625l-103 -376h255l-102 376h-50zM445 921l17 -58q-46 -51 -87 -51q-23 0 -78 25t-69 25q-24 0 -74 -43l-18 57q51 54 92 54q26 0 80 -24.5t67 -24.5q21 0 70 40z" />
<glyph unicode="&#xc4;" horiz-adv-x="604" d="M31 0l190 696h168l188 -695h-77l-52 174h-290l-51 -175h-76zM279 625l-103 -376h255l-102 376h-50zM183 825v90h72v-90h-72zM383 825v90h72v-90h-72z" />
<glyph unicode="&#xc5;" horiz-adv-x="604" d="M422 744q0 -43 -26 -71l181 -672h-76l-53 174h-290l-50 -175h-77l183 670q-29 29 -29 74q0 49 33.5 77t85.5 28t85 -28t33 -77zM279 625l-103 -376h256l-103 376h-50zM246 744q0 -39 34 -48h46q35 10 35 48q0 24 -15 37t-42 13t-42.5 -13t-15.5 -37z" />
<glyph unicode="&#xc6;" horiz-adv-x="898" d="M429 0v175h-251l-59 -175h-79l224 696h585v-73h-344v-230h284v-73h-284v-247h344v-73h-420zM320 623l-121 -374h230v374h-109z" />
<glyph unicode="&#xc7;" horiz-adv-x="537" d="M426 -127q0 -90 -94 -90q-20 0 -41.5 1.5t-32.5 3.5l-12 2l3 48q39 -3 66 -3q44 0 44 38q0 34 -44 34h-42v84q-129 9 -175.5 94t-46.5 261q0 188 53.5 274t199.5 86q40 0 88 -6t76 -12l27 -5l-4 -69q-109 17 -179 17q-110 0 -146 -65t-36 -220q0 -153 36 -217t148 -64 q28 0 72 4.5t74 8.5l31 5l3 -70q-102 -21 -180 -23v-39q59 0 85.5 -16t26.5 -62z" />
<glyph unicode="&#xc8;" horiz-adv-x="564" d="M90 0v696h420v-73h-344v-235h284v-72h-284v-243h344v-73h-420zM202 935l218 -94l-25 -62l-221 87z" />
<glyph unicode="&#xc9;" horiz-adv-x="572" d="M92 0v696h420v-73h-344v-235h284v-72h-284v-243h344v-73h-420zM193 855l218 95l27 -70l-220 -86z" />
<glyph unicode="&#xca;" horiz-adv-x="572" d="M92 0v696h420v-73h-344v-235h284v-72h-284v-243h344v-73h-420zM154 792l125 148h60l126 -148h-83l-72 84l-73 -84h-83z" />
<glyph unicode="&#xcb;" horiz-adv-x="572" d="M92 0v696h420v-73h-344v-235h284v-72h-284v-243h344v-73h-420zM171 825v90h72v-90h-72zM371 825v90h73v-90h-73z" />
<glyph unicode="&#xcc;" horiz-adv-x="247" d="M85 0v696h77v-696h-77zM2 935l218 -94l-25 -62l-221 87z" />
<glyph unicode="&#xcd;" horiz-adv-x="247" d="M85 0v696h77v-696h-77zM10 845l218 95l27 -70l-220 -86z" />
<glyph unicode="&#xce;" horiz-adv-x="247" d="M85 0v696h77v-696h-77zM-43 799l133 135h67l133 -135h-87l-79 75l-78 -75h-89z" />
<glyph unicode="&#xcf;" horiz-adv-x="247" d="M85 0v696h77v-696h-77zM-15 820v90h73v-90h-73zM192 820v90h72v-90h-72z" />
<glyph unicode="&#xd0;" horiz-adv-x="642" d="M22 306v73h68v317h247q141 0 198.5 -88t57.5 -249q0 -80 -12 -141t-39.5 -112t-79 -78.5t-125.5 -27.5h-247v306h-68zM513 359q0 59 -7.5 103.5t-26.5 82.5t-54.5 58t-87.5 20h-171v-244h152v-73h-152v-233h171q176 0 176 286z" />
<glyph unicode="&#xd1;" horiz-adv-x="687" d="M85 0v696h138l276 -606h23v606h76v-696h-135l-279 606h-22v-606h-77zM484 921l17 -58q-46 -51 -86 -51q-24 0 -79 25t-69 25q-24 0 -74 -43l-18 57q51 54 92 54q27 0 80.5 -24.5t66.5 -24.5q22 0 70 40z" />

<glyph unicode="&#xd2;" horiz-adv-x="656" d="M328 63q115 0 154.5 64.5t39.5 216.5q0 148 -41 218.5t-153 70.5q-113 0 -153.5 -69.5t-40.5 -219.5q0 -149 39.5 -215t154.5 -66zM328 -10q-155 0 -214.5 85t-59.5 269q0 183 60.5 272.5t213.5 89.5t213 -89t60 -273q0 -187 -59 -270.5t-214 -83.5zM225 935l218 -94 l-25 -62l-221 87z" />
<glyph unicode="&#xd3;" horiz-adv-x="656" d="M328 63q115 0 154.5 64.5t39.5 216.5q0 148 -41 218.5t-153 70.5q-113 0 -153.5 -69.5t-40.5 -219.5q0 -149 39.5 -215t154.5 -66zM328 -10q-155 0 -214.5 85t-59.5 269q0 183 60.5 272.5t213.5 89.5t213 -89t60 -273q0 -187 -59 -270.5t-214 -83.5zM200 855l218 95 l27 -70l-220 -86z" />
<glyph unicode="&#xd4;" horiz-adv-x="656" d="M328 63q115 0 154.5 64.5t39.5 216.5q0 148 -41 218.5t-153 70.5q-113 0 -153.5 -69.5t-40.5 -219.5q0 -149 39.5 -215t154.5 -66zM328 -10q-155 0 -214.5 85t-59.5 269q0 183 60.5 272.5t213.5 89.5t213 -89t60 -273q0 -187 -59 -270.5t-214 -83.5zM173 792l125 148h60 l126 -148h-83l-72 84l-73 -84h-83z" />
<glyph unicode="&#xd5;" horiz-adv-x="656" d="M328 63q115 0 154.5 64.5t39.5 216.5q0 149 -41 219t-153 70q-113 0 -153.5 -69.5t-40.5 -219.5q0 -149 39.5 -215t154.5 -66zM328 -10q-155 0 -214.5 85.5t-59.5 268.5t60.5 272.5t213.5 89.5t213.5 -89t60.5 -273q0 -187 -59.5 -270.5t-214.5 -83.5zM470 921l17 -58 q-46 -51 -86 -51q-24 0 -79 25t-69 25q-24 0 -74 -43l-18 57q51 54 92 54q27 0 80.5 -24.5t66.5 -24.5q22 0 70 40z" />
<glyph unicode="&#xd6;" horiz-adv-x="656" d="M328 63q115 0 154.5 64.5t39.5 216.5q0 149 -41 219t-153 70q-113 0 -153.5 -69.5t-40.5 -219.5q0 -149 39.5 -215t154.5 -66zM328 -10q-155 0 -214.5 85.5t-59.5 268.5t60.5 272.5t213.5 89.5t213.5 -89t60.5 -273q0 -187 -59.5 -270.5t-214.5 -83.5zM188 825v90h72v-90 h-72zM389 825v90h72v-90h-72z" />
<glyph unicode="&#xd7;" horiz-adv-x="712" d="M234 512l187 -193l188 193l51 -48l-189 -195l190 -196l-50 -48l-190 194l-189 -194l-50 48l190 196l-188 195z" />
<glyph unicode="&#xd8;" horiz-adv-x="651" d="M326 -10q-64 0 -115 16l-58 -124l-68 30l60 128q-93 74 -93 304q0 183 60.5 272.5t213.5 89.5q67 0 121 -19l53 114l70 -27l-59 -126q88 -80 88 -304q0 -187 -59 -270.5t-214 -83.5zM132 344q0 -168 49 -227l233 500q-35 16 -88 16q-113 0 -153.5 -69.5t-40.5 -219.5z M326 63q115 0 154.5 64.5t39.5 216.5q0 161 -46 225l-231 -494q35 -12 83 -12z" />
<glyph unicode="&#xd9;" horiz-adv-x="640" d="M155 210q0 -145 162 -145q83 0 126 33.5t43 111.5v486h76v-486q0 -115 -61.5 -167t-183.5 -52q-118 0 -178.5 51.5t-60.5 167.5v486h77v-486zM157 935l218 -94l-25 -62l-221 87z" />
<glyph unicode="&#xda;" horiz-adv-x="642" d="M157 210q0 -145 162 -145q83 0 126 33.5t43 111.5v486h76v-486q0 -115 -61.5 -167t-183.5 -52q-118 0 -178.5 51.5t-60.5 167.5v486h77v-486zM195 855l218 95l27 -70l-220 -86z" />
<glyph unicode="&#xdb;" horiz-adv-x="642" d="M157 210q0 -145 162 -145q83 0 126 33.5t43 111.5v486h76v-486q0 -115 -61.5 -167t-183.5 -52q-118 0 -178.5 51.5t-60.5 167.5v486h77v-486zM168 792l125 148h60l126 -148h-83l-72 84l-73 -84h-83z" />
<glyph unicode="&#xdc;" horiz-adv-x="642" d="M157 210q0 -145 162 -145q83 0 126 33.5t43 111.5v486h76v-486q0 -115 -61.5 -167t-183.5 -52q-118 0 -178.5 51.5t-60.5 167.5v486h77v-486zM204 825v90h72v-90h-72zM404 825v90h73v-90h-73z" />
<glyph unicode="&#xdd;" horiz-adv-x="540" d="M310 298v-298h-77v299l-220 397h86l172 -312l170 312h86zM136 855l218 95l27 -70l-220 -86z" />
<glyph unicode="&#xde;" horiz-adv-x="581" d="M323 195q144 0 144 166q0 77 -34.5 113t-109.5 36h-176v-315h176zM324 121h-177v-121h-76v696h76v-112h177q113 0 167 -54.5t54 -168.5q0 -116 -55 -178t-166 -62z" />
<glyph unicode="&#xdf;" horiz-adv-x="605" d="M163 0h-76v545q0 100 46.5 141t150.5 41q105 0 149.5 -33t44.5 -110q0 -96 -76 -128q-40 -16 -52.5 -25t-12.5 -23q0 -13 14.5 -25t73.5 -44q78 -42 104 -65.5t26 -63.5q0 -123 -49.5 -171t-188.5 -48q-15 0 -38.5 3t-39.5 6l-16 3l4 62q73 -4 90 -4q97 0 128.5 31 t31.5 110q0 15 -23 32.5t-86 50.5q-68 33 -88.5 56.5t-20.5 60.5q0 36 19 56.5t64 39.5q36 15 47 33.5t11 48.5q0 44 -26 61.5t-90 17.5t-92.5 -25.5t-28.5 -97.5v-536z" />
<glyph unicode="&#xe0;" horiz-adv-x="525" d="M425 347v-246q2 -39 58 -46l-3 -65q-81 0 -118 38q-90 -38 -185 -38q-65 0 -100.5 40t-35.5 113q0 71 37 106t115 42l158 15v41q0 91 -87 91l-191 -13l-3 65q120 20 197 20q80 0 119 -39.5t39 -123.5zM351 245l-148 -12q-86 -8 -86 -88q0 -43 18.5 -66.5t52.5 -23.5 t74.5 7.5t64.5 15.5l24 7v160zM143 749l218 -94l-24 -58l-220 86z" />
<glyph unicode="&#xe1;" horiz-adv-x="525" d="M425 347v-246q2 -39 58 -46l-3 -65q-81 0 -118 38q-90 -38 -185 -38q-65 0 -100.5 40t-35.5 113q0 71 37 106t115 42l158 15v41q0 91 -87 91l-191 -13l-3 65q120 20 197 20q80 0 119 -39.5t39 -123.5zM351 245l-148 -12q-86 -8 -86 -88q0 -43 18.5 -66.5t52.5 -23.5 t74.5 7.5t64.5 15.5l24 7v160zM119 655l218 95l27 -70l-220 -86z" />
<glyph unicode="&#xe2;" horiz-adv-x="525" d="M425 347v-246q2 -39 58 -46l-3 -65q-81 0 -118 38q-90 -38 -185 -38q-65 0 -100.5 40t-35.5 113q0 71 37 106t115 42l158 15v41q0 91 -87 91l-191 -13l-3 65q120 20 197 20q80 0 119 -39.5t39 -123.5zM351 245l-148 -12q-86 -8 -86 -88q0 -43 18.5 -66.5t52.5 -23.5 t74.5 7.5t64.5 15.5l24 7v160zM90 592l125 148h60l126 -148h-83l-72 84l-73 -84h-83z" />

<glyph unicode="&#xe3;" horiz-adv-x="525" d="M426 347v-246q1 -39 57 -46l-2 -65q-82 0 -119 38q-89 -38 -185 -38q-65 0 -100.5 40t-35.5 113q0 71 37 106t116 42l157 15v41q0 91 -87 91l-191 -13l-3 65q120 20 198 20q80 0 119 -39.5t39 -123.5zM351 245l-148 -12q-85 -8 -85 -88q0 -43 18.5 -66.5t52.5 -23.5 q33 0 73.5 7.5t64.5 15.5l24 7v160zM387 721l17 -58q-46 -51 -86 -51q-24 0 -79 25t-69 25q-24 0 -74 -43l-18 57q51 54 92 54q27 0 80.5 -24.5t66.5 -24.5q22 0 70 40z" />
<glyph unicode="&#xe4;" horiz-adv-x="525" d="M426 347v-246q1 -39 57 -46l-2 -65q-82 0 -119 38q-89 -38 -185 -38q-65 0 -100.5 40t-35.5 113q0 71 37 106t116 42l157 15v41q0 91 -87 91l-191 -13l-3 65q120 20 198 20q80 0 119 -39.5t39 -123.5zM351 245l-148 -12q-85 -8 -85 -88q0 -43 18.5 -66.5t52.5 -23.5 q33 0 73.5 7.5t64.5 15.5l24 7v160zM115 625v90h72v-90h-72zM315 625v90h73v-90h-73z" />
<glyph unicode="&#xe5;" horiz-adv-x="525" d="M425 347v-246q2 -39 58 -46l-3 -65q-81 0 -118 38q-90 -38 -185 -38q-65 0 -100.5 40t-35.5 113q0 71 37 106t115 42l158 15v41q0 91 -87 91l-191 -13l-3 65q120 20 197 20q80 0 119 -39.5t39 -123.5zM351 245l-148 -12q-86 -8 -86 -88q0 -43 18.5 -66.5t52.5 -23.5 t74.5 7.5t64.5 15.5l24 7v160zM152 645q0 44 30 74t74 30q43 0 73 -30t30 -74t-29.5 -74t-73.5 -30t-74 30t-30 74zM207 645q0 -21 14 -36t35 -15t35 15t14 36t-14 35.5t-35 14.5t-35 -14.5t-14 -35.5z" />
<glyph unicode="&#xe6;" horiz-adv-x="828" d="M570 58q33 0 78.5 2.5t75.5 4.5l29 2l2 -61q-113 -16 -194 -16q-101 0 -147 54l-32 -14q-93 -40 -192 -40q-67 0 -101.5 39.5t-34.5 113.5q0 80 40.5 110.5t139.5 40.5l129 12v41q0 91 -86 91q-33 0 -80.5 -2.5t-78.5 -5.5l-32 -2l-2 67q119 15 196 15q102 0 135 -73 q48 73 156 73q101 0 151.5 -56.5t50.5 -177.5l-4 -58h-331q0 -82 30 -121t102 -39zM201 55q46 0 105 14.5t74 22.5q-18 51 -18 153l-147 -12q-44 -4 -64.5 -25t-20.5 -63q0 -90 71 -90zM438 279h260q0 89 -30 126.5t-97 37.5q-66 0 -99.5 -39t-33.5 -125z" />
<glyph unicode="&#xe7;" horiz-adv-x="437" d="M373 -127q0 -90 -94 -90q-20 0 -41.5 1.5t-33.5 3.5l-11 2l3 48q39 -3 66 -3q44 0 44 38q0 34 -44 34h-42v85q-96 7 -133 67.5t-37 199.5q0 136 47.5 193.5t159.5 57.5q20 0 54 -4t58 -8l24 -3l-2 -65q-80 9 -118 9q-85 0 -115.5 -39.5t-30.5 -140.5q0 -114 28.5 -156.5 t117.5 -42.5l119 9l3 -65q-88 -13 -134 -14v-39q59 0 85.5 -16t26.5 -62z" />
<glyph unicode="&#xe8;" horiz-adv-x="503" d="M257 58q33 0 79 2.5t75 4.5l29 2l2 -61q-113 -16 -194 -16q-109 0 -154 62.5t-45 194.5q0 263 210 263q101 0 151 -56.5t50 -177.5l-4 -58h-331q1 -82 30.5 -121t101.5 -39zM125 279h260q0 89 -30 126.5t-96 37.5q-134 0 -134 -164zM137 742l218 -94l-24 -58l-220 86z " />
<glyph unicode="&#xe9;" horiz-adv-x="503" d="M257 58q33 0 79 2.5t75 4.5l29 2l2 -61q-113 -16 -194 -16q-109 0 -154 62.5t-45 194.5q0 263 210 263q101 0 151 -56.5t50 -177.5l-4 -58h-331q1 -82 30.5 -121t101.5 -39zM125 279h260q0 89 -30 126.5t-96 37.5q-134 0 -134 -164zM149 655l218 95l27 -70l-220 -86z" />
<glyph unicode="&#xea;" horiz-adv-x="503" d="M257 58q33 0 79 2.5t75 4.5l29 2l2 -61q-113 -16 -194 -16q-109 0 -154 62.5t-45 194.5q0 263 210 263q101 0 151 -56.5t50 -177.5l-4 -58h-331q1 -82 30.5 -121t101.5 -39zM125 279h260q0 89 -30 126.5t-96 37.5q-134 0 -134 -164zM110 592l125 148h60l126 -148h-83 l-72 84l-73 -84h-83z" />
<glyph unicode="&#xeb;" horiz-adv-x="503" d="M257 58q33 0 79 2.5t75 4.5l29 2l2 -61q-113 -16 -194 -16q-109 0 -154 62.5t-45 194.5q0 263 210 263q101 0 151 -56.5t50 -177.5l-4 -58h-331q1 -82 31 -121t101 -39zM125 279h260q0 89 -30 126.5t-96 37.5q-134 0 -134 -164zM120 625v90h73v-90h-73zM321 625v90h72 v-90h-72z" />
<glyph unicode="&#xec;" horiz-adv-x="261" d="M95 0v500h74v-500h-74zM31 749l218 -94l-24 -58l-220 86z" />
<glyph unicode="&#xed;" horiz-adv-x="261" d="M34 655l218 95l27 -70l-220 -86zM95 0v500h74v-500h-74z" />
<glyph unicode="&#xee;" horiz-adv-x="264" d="M95 0v500h74v-500h-74zM-25 592l125 148h60l126 -148h-83l-72 84l-73 -84h-83z" />
<glyph unicode="&#xef;" horiz-adv-x="261" d="M-8 625v90h72v-90h-72zM192 625v90h72v-90h-72zM95 0v500h74v-500h-74z" />
<glyph unicode="&#xf0;" d="M156 520l-33 47l83 60q-50 18 -112 33l15 63q101 -21 163 -48l99 71l34 -47l-75 -54q164 -97 164 -293q0 -194 -54 -277.5t-177 -83.5q-106 0 -164.5 59.5t-58.5 171.5q0 95 57 151.5t153 56.5q33 0 74 -9t66 -17l24 -9q-6 133 -147 205zM254 363q-62 0 -98.5 -39.5 t-36.5 -101.5q0 -77 36.5 -119t107.5 -42q81 0 116 59.5t36 206.5q-89 36 -161 36z" />
<glyph unicode="&#xf1;" horiz-adv-x="573" d="M166 0h-75v500h75v-33q84 43 155 43q100 0 134 -54.5t34 -195.5v-260h-74v259q0 105 -20 143.5t-86 38.5t-143 -37v-404zM440 721l17 -58q-46 -51 -86 -51q-24 0 -79 25t-69 25q-24 0 -74 -43l-18 57q51 54 92 54q27 0 80.5 -24.5t66.5 -24.5q22 0 70 40z" />
<glyph unicode="&#xf2;" horiz-adv-x="528" d="M265 510q112 0 162.5 -62.5t50.5 -192.5q0 -137 -46 -201t-167 -64q-123 0 -169 62t-46 205q0 132 49.5 192.5t165.5 60.5zM265 57q83 0 109.5 45t26.5 153q0 100 -32 143.5t-104 43.5q-79 0 -108.5 -40.5t-29.5 -144.5q0 -112 27 -156t111 -44zM166 749l218 -94l-24 -58 l-220 86z" />
<glyph unicode="&#xf3;" horiz-adv-x="528" d="M265 510q112 0 162.5 -62.5t50.5 -192.5q0 -137 -46 -201t-167 -64q-123 0 -169 62t-46 205q0 132 49.5 192.5t165.5 60.5zM265 57q83 0 109.5 45t26.5 153q0 100 -32 143.5t-104 43.5q-79 0 -108.5 -40.5t-29.5 -144.5q0 -112 27 -156t111 -44zM146 655l218 95l27 -70 l-220 -86z" />

<glyph unicode="&#xf4;" horiz-adv-x="528" d="M265 510q112 0 162.5 -62.5t50.5 -192.5q0 -137 -46 -201t-167 -64q-123 0 -169 62t-46 205q0 132 49.5 192.5t165.5 60.5zM265 57q83 0 109.5 45t26.5 153q0 100 -32 143.5t-104 43.5q-79 0 -108.5 -40.5t-29.5 -144.5q0 -112 27 -156t111 -44zM106 592l125 148h60 l126 -148h-83l-72 84l-73 -84h-83z" />
<glyph unicode="&#xf5;" horiz-adv-x="528" d="M265 510q112 0 162.5 -62.5t50.5 -192.5q0 -137 -46 -201t-167 -64q-123 0 -169 62t-46 205q0 132 49.5 192.5t165.5 60.5zM265 57q83 0 109.5 45t26.5 153q0 100 -32 143.5t-104 43.5q-79 0 -108.5 -40.5t-29.5 -144.5q0 -112 27 -156t111 -44zM408 721l17 -58 q-46 -51 -86 -51q-24 0 -79 25t-69 25q-24 0 -74 -43l-18 57q51 54 92 54q27 0 80.5 -24.5t66.5 -24.5q21 0 70 40z" />
<glyph unicode="&#xf6;" horiz-adv-x="528" d="M265 510q112 0 162.5 -62.5t50.5 -192.5q0 -137 -46 -201t-167 -64q-123 0 -169 62t-46 205q0 132 49.5 192.5t165.5 60.5zM265 57q83 0 109.5 45t26.5 153q0 100 -32 143.5t-104 43.5q-79 0 -108.5 -40.5t-29.5 -144.5q0 -112 27 -156t111 -44zM124 625v90h73v-90h-73z M325 625v90h72v-90h-72z" />
<glyph unicode="&#xf7;" d="M100 361v75h13v42h226v-42h16v-75h-255zM189 102v101h77v-101h-77z" />
<glyph unicode="&#xf8;" horiz-adv-x="528" d="M265 510q38 0 73 -8l42 104l51 -19l-44 -105q91 -53 91 -227q0 -137 -46 -201t-167 -64q-42 0 -77 8l-44 -110l-50 18l44 110q-48 27 -68 85t-20 156q0 132 49.5 192.5t165.5 60.5zM265 57q83 0 109.5 45t26.5 153q0 116 -45 157l-143 -350q19 -5 52 -5zM265 442 q-79 0 -108.5 -40.5t-29.5 -144.5q0 -71 9 -112t33 -62l143 353q-21 6 -47 6z" />
<glyph unicode="&#xf9;" horiz-adv-x="559" d="M152 749l218 -95l-28 -65l-219 91zM397 500h74v-500h-74v32q-78 -42 -148 -42q-102 0 -135.5 53t-33.5 196v261h74v-260q0 -109 19 -146t87 -37q29 0 63.5 9.5t54.5 18.5l19 9v406z" />
<glyph unicode="&#xfa;" horiz-adv-x="559" d="M397 500h74v-500h-74v32q-78 -42 -148 -42q-102 0 -135.5 53t-33.5 196v261h74v-260q0 -109 19 -146t87 -37q29 0 63.5 9.5t54.5 18.5l19 9v406zM159 655l218 95l27 -70l-220 -86z" />
<glyph unicode="&#xfb;" horiz-adv-x="559" d="M397 500h74v-500h-74v32q-78 -42 -148 -42q-102 0 -135.5 53t-33.5 196v261h74v-260q0 -109 19 -146t87 -37q29 0 63.5 9.5t54.5 18.5l19 9v406zM112 592l125 148h60l126 -148h-83l-72 84l-73 -84h-83z" />
<glyph unicode="&#xfc;" horiz-adv-x="559" d="M397 500h74v-500h-74v32q-78 -42 -148 -42q-102 0 -135.5 53t-33.5 196v261h74v-260q0 -109 19 -146t87 -37q29 0 63.5 9.5t54.5 18.5l19 9v406zM147 625v90h72v-90h-72zM347 625v90h73v-90h-73z" />
<glyph unicode="&#xfd;" horiz-adv-x="480" d="M17 500h75l125 -428h34l125 428h75l-208 -722h-75l64 222h-73zM138 655l218 95l27 -70l-220 -86z" />
<glyph unicode="&#xfe;" horiz-adv-x="538" d="M281 57q98 0 129 44.5t31 155.5q0 100 -24.5 142t-88.5 42q-30 0 -65 -6.5t-55 -13.5l-20 -7v-351q66 -6 93 -6zM335 510q101 0 142 -57.5t41 -193.5q0 -150 -51 -209.5t-186 -59.5q-46 0 -93 5v-217h-74v940h74v-241q76 33 147 33z" />
<glyph unicode="&#xff;" horiz-adv-x="482" d="M24 500h75l125 -428h34l125 428h75l-208 -722h-75l64 222h-73zM104 625v90h72v-90h-72zM304 625v90h73v-90h-73z" />
<glyph unicode="&#x100;" horiz-adv-x="604" d="M29 0l190 696h169l187 -695h-76l-53 174h-290l-50 -175h-77zM277 625l-103 -376h256l-103 376h-50zM140 816v66h311v-66h-311z" />
<glyph unicode="&#x101;" horiz-adv-x="522" d="M433 347v-246q2 -39 58 -46l-3 -65q-81 0 -118 38q-90 -38 -185 -38q-65 0 -100.5 40t-35.5 113q0 71 37 106t115 42l158 15v41q0 91 -87 91l-191 -13l-3 65q120 20 197 20q80 0 119 -39.5t39 -123.5zM359 245l-148 -12q-86 -8 -86 -88q0 -43 18.5 -66.5t52.5 -23.5 t74.5 7.5t64.5 15.5l24 7v160zM112 634v66h291v-66h-291z" />
<glyph unicode="&#x102;" horiz-adv-x="604" d="M29 0l190 696h169l187 -695h-76l-53 174h-290l-50 -175h-77zM277 625l-103 -376h256l-103 376h-50zM145 926h76q1 -31 24 -49.5t57 -18.5t57 18.5t24 49.5h77q-3 -60 -46 -96t-112 -36t-111.5 36t-45.5 96z" />
<glyph unicode="&#x103;" horiz-adv-x="522" d="M433 347v-246q2 -39 58 -46l-3 -65q-81 0 -118 38q-90 -38 -185 -38q-65 0 -100.5 40t-35.5 113q0 71 37 106t115 42l158 15v41q0 91 -87 91l-191 -13l-3 65q120 20 197 20q80 0 119 -39.5t39 -123.5zM359 245l-148 -12q-86 -8 -86 -88q0 -43 18.5 -66.5t52.5 -23.5 t74.5 7.5t64.5 15.5l24 7v160zM101 733h76q2 -34 24 -54.5t60 -20.5q39 0 60.5 20t23.5 55h76q-3 -63 -45 -102.5t-115 -39.5t-115 39.5t-45 102.5z" />
<glyph unicode="&#x104;" horiz-adv-x="604" d="M587 -135l7 -62q-45 -9 -79 -9q-40 0 -66 23.5t-26 63.5q0 55 76 120l-53 174h-290l-50 -175h-77l190 696h169l187 -695h-4q-69 -68 -69 -101q0 -17 9.5 -28.5t26.5 -11.5zM277 625l-103 -376h256l-103 376h-50z" />

<glyph unicode="&#x105;" horiz-adv-x="522" d="M484 -135l7 -62q-45 -9 -79 -9q-40 0 -66 23.5t-26 63.5q0 34 28.5 70t51.5 54q-17 8 -30 23q-90 -38 -185 -38q-65 0 -100.5 40t-35.5 113q0 71 37 106t115 42l158 15v41q0 91 -87 91l-191 -13l-3 65q120 20 197 20q80 0 119 -39.5t39 -123.5v-246q2 -39 58 -46l-3 -65 q-21 0 -30 1q-59 -59 -59 -91q0 -17 9.5 -28.5t26.5 -11.5zM359 245l-148 -12q-86 -8 -86 -88q0 -43 18.5 -66.5t52.5 -23.5t74.5 7.5t64.5 15.5l24 7v160z" />
<glyph unicode="&#x106;" horiz-adv-x="534" d="M491 83l3 -70q-111 -23 -190 -23q-76 0 -126.5 22.5t-78 70.5t-38 110t-10.5 153q0 188 53.5 274t199.5 86q40 0 88 -6t76 -12l27 -5l-4 -69q-109 17 -179 17q-110 0 -146 -65t-36 -220q0 -153 36 -217t148 -64q28 0 72 4.5t74 8.5zM168 845l218 95l27 -70l-220 -86z" />
<glyph unicode="&#x107;" horiz-adv-x="437" d="M257 510q20 0 54 -4t58 -8l24 -3l-2 -65q-80 9 -118 9q-85 0 -115.5 -39.5t-30.5 -140.5q0 -114 28.5 -156.5t117.5 -42.5l119 9l3 -65q-94 -14 -139 -14q-118 0 -162 59.5t-44 209.5q0 136 47.5 193.5t159.5 57.5zM118 655l218 95l27 -70l-220 -86z" />
<glyph unicode="&#x108;" horiz-adv-x="534" d="M491 83l3 -70q-111 -23 -190 -23q-76 0 -126.5 22.5t-78 70.5t-38 110t-10.5 153q0 188 53.5 274t199.5 86q40 0 88 -6t76 -12l27 -5l-4 -69q-109 17 -179 17q-110 0 -146 -65t-36 -220q0 -153 36 -217t148 -64q28 0 72 4.5t74 8.5zM136 796l133 135h67l133 -135h-87 l-79 75l-78 -75h-89z" />
<glyph unicode="&#x109;" horiz-adv-x="437" d="M257 510q20 0 54 -4t58 -8l24 -3l-2 -65q-80 9 -118 9q-85 0 -115.5 -39.5t-30.5 -140.5q0 -114 28.5 -156.5t117.5 -42.5l119 9l3 -65q-94 -14 -139 -14q-118 0 -162 59.5t-44 209.5q0 136 47.5 193.5t159.5 57.5zM76 592l125 148h60l126 -148h-83l-72 84l-73 -84h-83z " />
<glyph unicode="&#x10a;" horiz-adv-x="534" d="M491 83l3 -70q-111 -23 -190 -23q-76 0 -126.5 22.5t-78 70.5t-38 110t-10.5 153q0 188 53.5 274t199.5 86q40 0 88 -6t76 -12l27 -5l-4 -69q-109 17 -179 17q-110 0 -146 -65t-36 -220q0 -153 36 -217t148 -64q28 0 72 4.5t74 8.5zM253 818v87h75v-87h-75z" />
<glyph unicode="&#x10b;" horiz-adv-x="437" d="M257 510q20 0 54 -4t58 -8l24 -3l-2 -65q-80 9 -118 9q-85 0 -115.5 -39.5t-30.5 -140.5q0 -114 28.5 -156.5t117.5 -42.5l119 9l3 -65q-94 -14 -139 -14q-118 0 -162 59.5t-44 209.5q0 136 47.5 193.5t159.5 57.5zM201 609v87h75v-87h-75z" />
<glyph unicode="&#x10c;" horiz-adv-x="534" d="M491 83l3 -70q-111 -23 -190 -23q-76 0 -126.5 22.5t-78 70.5t-38 110t-10.5 153q0 188 53.5 274t199.5 86q40 0 88 -6t76 -12l27 -5l-4 -69q-109 17 -179 17q-110 0 -146 -65t-36 -220q0 -153 36 -217t148 -64q28 0 72 4.5t74 8.5zM462 932l-133 -134h-66l-134 134h89 l78 -76l79 76h87z" />
<glyph unicode="&#x10d;" horiz-adv-x="437" d="M257 510q20 0 54 -4t58 -8l24 -3l-2 -65q-80 9 -118 9q-85 0 -115.5 -39.5t-30.5 -140.5q0 -114 28.5 -156.5t117.5 -42.5l119 9l3 -65q-94 -14 -139 -14q-118 0 -162 59.5t-44 209.5q0 136 47.5 193.5t159.5 57.5zM208 592l-124 148h83l73 -83l72 83h83l-125 -148h-62z " />
<glyph unicode="&#x10e;" horiz-adv-x="642" d="M337 0h-247v696h247q141 0 198.5 -88t57.5 -249q0 -80 -12 -141t-39.5 -112t-79 -78.5t-125.5 -27.5zM513 359q0 59 -7.5 103.5t-26.5 82.5t-54.5 58t-87.5 20h-171v-550h171q176 0 176 286zM466 932l-133 -134h-66l-134 134h89l78 -76l79 76h87z" />
<glyph unicode="&#x10f;" horiz-adv-x="733" d="M456 700v-700h-75v33q-77 -43 -152 -43q-40 0 -69.5 10.5t-56 37t-40 79.5t-13.5 131q0 135 48.5 198.5t160.5 63.5q57 0 122 -13v203h75zM239 59q30 0 65.5 9.5t55.5 18.5l21 9v335q-83 11 -118 11q-76 0 -107 -47t-31 -149q0 -58 9 -96.5t26.5 -57t35.5 -26t43 -7.5z M650 696v-234h-72v234h72z" />
<glyph unicode="&#x110;" horiz-adv-x="642" d="M22 311v73h68v312h247q141 0 198.5 -88t57.5 -249q0 -80 -12 -141t-39.5 -112t-79 -78.5t-125.5 -27.5h-247v311h-68zM513 359q0 59 -7.5 103.5t-26.5 82.5t-54.5 58t-87.5 20h-171v-239h158v-73h-158v-238h171q176 0 176 286z" />
<glyph unicode="&#x111;" horiz-adv-x="541" d="M188 622v66h193v12h75v-12h23v-66h-23v-622h-75v33q-77 -43 -152 -43q-40 0 -69.5 10.5t-56 37t-40 79.5t-13.5 131q0 135 48.5 198.5t160.5 63.5q57 0 122 -13v125h-193zM239 59q30 0 65.5 9.5t55.5 18.5l21 9v335q-83 11 -118 11q-76 0 -107 -47t-31 -149 q0 -58 9 -96.5t26.5 -57t35.5 -26t43 -7.5z" />
<glyph unicode="&#x112;" horiz-adv-x="564" d="M90 0v696h420v-73h-344v-235h284v-72h-284v-243h344v-73h-420zM142 820v66h311v-66h-311z" />
<glyph unicode="&#x113;" horiz-adv-x="507" d="M258 58q33 0 79 2.5t75 4.5l29 2l2 -61q-113 -16 -194 -16q-109 0 -154 62.5t-45 194.5q0 263 210 263q101 0 151 -56.5t50 -177.5l-4 -58h-331q1 -82 30.5 -121t101.5 -39zM126 279h260q0 89 -30 126.5t-96 37.5q-134 0 -134 -164zM114 634v66h291v-66h-291z" />
<glyph unicode="&#x114;" horiz-adv-x="564" d="M90 0v696h420v-73h-344v-235h284v-72h-284v-243h344v-73h-420zM151 926h76q1 -31 24 -49t57 -18t57 18t24 49h77q-3 -59 -46 -95t-112 -36t-111.5 36t-45.5 95z" />
<glyph unicode="&#x115;" horiz-adv-x="507" d="M258 58q33 0 79 2.5t75 4.5l29 2l2 -61q-113 -16 -194 -16q-109 0 -154 62.5t-45 194.5q0 263 210 263q101 0 151 -56.5t50 -177.5l-4 -58h-331q1 -82 30.5 -121t101.5 -39zM126 279h260q0 89 -30 126.5t-96 37.5q-134 0 -134 -164zM98 733h77q2 -34 23.5 -54.5 t59.5 -20.5q39 0 61 20.5t23 54.5h77q-3 -63 -45.5 -102.5t-115.5 -39.5q-72 0 -114.5 39.5t-45.5 102.5z" />

<glyph unicode="&#x116;" horiz-adv-x="564" d="M90 0v696h420v-73h-344v-235h284v-72h-284v-243h344v-73h-420zM264 818v87h75v-87h-75z" />
<glyph unicode="&#x117;" horiz-adv-x="507" d="M258 58q33 0 79 2.5t75 4.5l29 2l2 -61q-113 -16 -194 -16q-109 0 -154 62.5t-45 194.5q0 263 210 263q101 0 151 -56.5t50 -177.5l-4 -58h-331q1 -82 30.5 -121t101.5 -39zM126 279h260q0 89 -30 126.5t-96 37.5q-134 0 -134 -164zM216 609v87h75v-87h-75z" />
<glyph unicode="&#x118;" horiz-adv-x="564" d="M90 0v696h420v-73h-344v-235h284v-72h-284v-243h344v-73h-25q-68 -68 -68 -100q0 -17 9.5 -28.5t26.5 -11.5l49 5l7 -62q-45 -9 -79 -9q-40 0 -66 23.5t-26 63.5q0 31 24.5 64t49.5 55h-322z" />
<glyph unicode="&#x119;" horiz-adv-x="507" d="M434 -133l7 -62q-45 -9 -79 -9q-40 0 -66 23.5t-26 63.5q0 49 65 111q-58 -4 -86 -4q-109 0 -154 62.5t-45 194.5q0 263 210 263q101 0 151 -56.5t50 -177.5l-4 -58h-331q1 -82 30.5 -121t101.5 -39q33 0 79 2.5t75 4.5l29 2l2 -61q-12 -2 -26 -4q-68 -68 -68 -100 q0 -17 9.5 -28.5t26.5 -11.5zM126 279h260q0 89 -30 126.5t-96 37.5q-134 0 -134 -164z" />
<glyph unicode="&#x11a;" horiz-adv-x="564" d="M90 0v696h420v-73h-344v-235h284v-72h-284v-243h344v-73h-420zM480 939l-133 -134h-66l-134 134h89l78 -76l79 76h87z" />
<glyph unicode="&#x11b;" horiz-adv-x="507" d="M258 58q33 0 79 2.5t75 4.5l29 2l2 -61q-113 -16 -194 -16q-109 0 -154 62.5t-45 194.5q0 263 210 263q101 0 151 -56.5t50 -177.5l-4 -58h-331q1 -82 30.5 -121t101.5 -39zM126 279h260q0 89 -30 126.5t-96 37.5q-134 0 -134 -164zM222 592l-124 148h83l73 -83l72 83h83 l-125 -148h-62z" />
<glyph unicode="&#x11c;" horiz-adv-x="608" d="M354 285v70h191v-341q-142 -24 -225 -24q-150 0 -209 88t-59 269q0 183 58.5 271t207.5 88q47 0 103.5 -6.5t90.5 -13.5l33 -6l-3 -69q-124 21 -215 21q-114 0 -154.5 -66.5t-40.5 -218.5q0 -151 40 -217t154 -66q17 0 37 1.5t38 3t33 3.5t24.5 3.5t10.5 1.5v208h-115z M152 796l133 135h67l133 -135h-87l-79 75l-78 -75h-89z" />
<glyph unicode="&#x11d;" horiz-adv-x="518" d="M262 -239q-120 0 -167.5 33t-47.5 122q0 41 18 66.5t61 57.5q-27 18 -27 69q0 8 8.5 28t16.5 35l8 16q-78 36 -78 151q0 171 186 171l104 -13l146 3v-64h-90q31 -33 31 -97q0 -95 -46 -132t-148 -37q-27 0 -49 4q-18 -44 -18 -57q0 -31 19 -38.5t102 -7.5q110 0 152 -30 t42 -117q0 -163 -223 -163zM286 5l-109 5q-32 -24 -44 -42t-12 -46q0 -53 29.5 -73.5t112.5 -20.5q76 0 111 22t35 71q0 54 -25.5 69t-97.5 15zM237 234q64 0 91.5 23.5t27.5 81.5q0 63 -25.5 84.5t-91.5 21.5q-57 0 -83.5 -24t-26.5 -82q0 -56 23.5 -80.5t84.5 -24.5z M104 592l125 148h60l126 -148h-83l-72 84l-73 -84h-83z" />
<glyph unicode="&#x11e;" horiz-adv-x="608" d="M354 285v70h191v-341q-142 -24 -225 -24q-150 0 -209 88t-59 269q0 183 58.5 271t207.5 88q47 0 103.5 -6.5t90.5 -13.5l33 -6l-3 -69q-124 21 -215 21q-114 0 -154.5 -66.5t-40.5 -218.5q0 -151 40 -217t154 -66q17 0 37 1.5t38 3t33 3.5t24.5 3.5t10.5 1.5v208h-115z M166 926h77q1 -31 24 -49.5t57 -18.5t57 18.5t24 49.5h76q-3 -60 -45.5 -96t-111.5 -36t-112 36t-46 96z" />
<glyph unicode="&#x11f;" horiz-adv-x="518" d="M262 -239q-120 0 -167.5 33t-47.5 122q0 41 18 66.5t61 57.5q-27 18 -27 69q0 8 8.5 28t16.5 35l8 16q-78 36 -78 151q0 171 186 171l104 -13l146 3v-64h-90q31 -33 31 -97q0 -95 -46 -132t-148 -37q-27 0 -49 4q-18 -44 -18 -57q0 -31 19 -38.5t102 -7.5q110 0 152 -30 t42 -117q0 -163 -223 -163zM286 5l-109 5q-32 -24 -44 -42t-12 -46q0 -53 29.5 -73.5t112.5 -20.5q76 0 111 22t35 71q0 54 -25.5 69t-97.5 15zM237 234q64 0 91.5 23.5t27.5 81.5q0 63 -25.5 84.5t-91.5 21.5q-57 0 -83.5 -24t-26.5 -82q0 -56 23.5 -80.5t84.5 -24.5z M98 733h77q2 -34 24 -54.5t60 -20.5t60 20.5t24 54.5h76q-3 -63 -45.5 -102.5t-114.5 -39.5q-73 0 -115.5 39.5t-45.5 102.5z" />
<glyph unicode="&#x120;" horiz-adv-x="608" d="M354 285v70h191v-341q-142 -24 -225 -24q-150 0 -209 88t-59 269q0 183 58.5 271t207.5 88q47 0 103.5 -6.5t90.5 -13.5l33 -6l-3 -69q-124 21 -215 21q-114 0 -154.5 -66.5t-40.5 -218.5q0 -151 40 -217t154 -66q17 0 37 1.5t38 3t33 3.5t24.5 3.5t10.5 1.5v208h-115z M271 822v87h74v-87h-74z" />
<glyph unicode="&#x121;" horiz-adv-x="518" d="M262 -239q-120 0 -167.5 33t-47.5 122q0 41 18 66.5t61 57.5q-27 18 -27 69q0 8 8.5 28t16.5 35l8 16q-78 36 -78 151q0 171 186 171l104 -13l146 3v-64h-90q31 -33 31 -97q0 -95 -46 -132t-148 -37q-27 0 -49 4q-18 -44 -18 -57q0 -31 19 -38.5t102 -7.5q110 0 152 -30 t42 -117q0 -163 -223 -163zM286 5l-109 5q-32 -24 -44 -42t-12 -46q0 -53 29.5 -73.5t112.5 -20.5q76 0 111 22t35 71q0 54 -25.5 69t-97.5 15zM237 234q64 0 91.5 23.5t27.5 81.5q0 63 -25.5 84.5t-91.5 21.5q-57 0 -83.5 -24t-26.5 -82q0 -56 23.5 -80.5t84.5 -24.5z M221 609v87h75v-87h-75z" />
<glyph unicode="&#x122;" horiz-adv-x="608" d="M354 285v70h191v-341q-142 -24 -225 -24q-150 0 -209 88t-59 269q0 183 58.5 271t207.5 88q47 0 103.5 -6.5t90.5 -13.5l33 -6l-3 -69q-124 21 -215 21q-114 0 -154.5 -66.5t-40.5 -218.5q0 -151 40 -217t154 -66q17 0 37 1.5t38 3t33 3.5t24.5 3.5t10.5 1.5v208h-115z M246 -285l41 207h74l-50 -207h-65z" />
<glyph unicode="&#x123;" horiz-adv-x="518" d="M262 -239q-120 0 -167.5 33t-47.5 122q0 41 18 66.5t61 57.5q-27 18 -27 69q0 8 8.5 28t16.5 35l8 16q-78 36 -78 151q0 171 186 171l104 -13l146 3v-64h-90q31 -33 31 -97q0 -95 -46 -132t-148 -37q-27 0 -49 4q-18 -44 -18 -57q0 -31 19 -38.5t102 -7.5q110 0 152 -30 t42 -117q0 -163 -223 -163zM286 5l-109 5q-32 -24 -44 -42t-12 -46q0 -53 29.5 -73.5t112.5 -20.5q76 0 111 22t35 71q0 54 -25.5 69t-97.5 15zM237 234q64 0 91.5 23.5t27.5 81.5q0 63 -25.5 84.5t-91.5 21.5q-57 0 -83.5 -24t-26.5 -82q0 -56 23.5 -80.5t84.5 -24.5z M304 796l-41 -207h-74l50 207h65z" />
<glyph unicode="&#x124;" horiz-adv-x="683" d="M519 0v314h-352v-314h-77v696h77v-308h352v308h76v-696h-76zM177 794l133 135h67l133 -135h-87l-79 75l-78 -75h-89z" />
<glyph unicode="&#x125;" horiz-adv-x="565" d="M162 0h-75v730h75v-254q84 34 154 34q101 0 135 -54.5t34 -194.5v-261h-75v260q0 104 -20 142.5t-85 38.5q-30 0 -65.5 -7.5t-56.5 -14.5l-21 -7v-412zM127 774l125 148h60l126 -148h-83l-72 84l-73 -84h-83z" />
<glyph unicode="&#x126;" horiz-adv-x="683" d="M16 508v65h74v123h77v-123h352v123h76v-123h83v-65h-83v-508h-76v314h-352v-314h-77v508h-74zM167 388h352v120h-352v-120z" />

<glyph unicode="&#x127;" horiz-adv-x="565" d="M25 580v66h62v84h75v-84h154v-66h-154v-104q84 34 154 34q101 0 135 -54.5t34 -194.5v-261h-75v260q0 104 -20 142.5t-85 38.5q-30 0 -65.5 -7.5t-56.5 -14.5l-21 -7v-412h-75v580h-62z" />
<glyph unicode="&#x128;" horiz-adv-x="247" d="M85 0v696h77v-696h-77zM286 914l18 -58q-52 -58 -92 -58q-25 0 -87 28t-76 28q-11 0 -31 -12t-34 -24l-15 -13l-18 58q56 60 97 60q28 0 89 -27.5t73 -27.5q9 0 28 11.5t34 22.5z" />
<glyph unicode="&#x129;" horiz-adv-x="264" d="M95 0v500h74v-500h-74zM275 721l17 -58q-46 -51 -86 -51q-24 0 -79 25t-69 25q-24 0 -74 -43l-18 57q51 54 92 54q27 0 80.5 -24.5t66.5 -24.5q21 0 70 40z" />
<glyph unicode="&#x12a;" horiz-adv-x="247" d="M85 0v696h77v-696h-77zM-32 830v66h311v-66h-311z" />
<glyph unicode="&#x12b;" horiz-adv-x="264" d="M95 0v500h74v-500h-74zM-13 634v66h291v-66h-291z" />
<glyph unicode="&#x12c;" horiz-adv-x="247" d="M85 0v696h77v-696h-77zM-34 926h77q1 -31 24 -49.5t56 -18.5q34 0 57 18.5t24 49.5h77q-3 -60 -46 -96t-112 -36t-111.5 36t-45.5 96z" />
<glyph unicode="&#x12d;" horiz-adv-x="264" d="M95 0v500h74v-500h-74zM-28 733h76q2 -34 24 -54.5t60 -20.5q39 0 60.5 20t23.5 55h77q-3 -63 -45.5 -102.5t-115.5 -39.5q-72 0 -114.5 39.5t-45.5 102.5z" />
<glyph unicode="&#x12e;" horiz-adv-x="247" d="M85 0v696h77v-696h-1q-68 -68 -68 -100q0 -17 9.5 -28.5t26.5 -11.5l49 5l7 -62q-45 -9 -79 -9q-40 0 -66 23.5t-26 63.5q0 31 24.5 64t49.5 55h-3z" />
<glyph unicode="&#x12f;" horiz-adv-x="236" d="M-198 0v500h74v-500h-74zM-198 613v87h74v-87h-74zM171 -135l7 -62q-45 -9 -79 -9q-40 0 -66 23.5t-26 63.5q0 26 20.5 58t41.5 51l21 18l65 -7q-69 -68 -69 -101q0 -17 9.5 -28.5t26.5 -11.5z" />
<glyph unicode="&#x130;" horiz-adv-x="247" d="M85 0v696h77v-696h-77zM86 818v87h74v-87h-74z" />
<glyph unicode="&#x131;" horiz-adv-x="261" d="M95 0v500h74v-500h-74z" />
<glyph unicode="&#x134;" horiz-adv-x="308" d="M222 697q0 -106 0.5 -293.5t0.5 -294.5q0 -62 -10 -98.5t-36.5 -54.5t-57 -23t-86.5 -5v72q71 0 92 19t21 99v579h76zM0 794l133 135h67l133 -135h-87l-79 75l-78 -75h-89z" />
<glyph unicode="&#x135;" horiz-adv-x="248" d="M93 6v494h74v-495q0 -92 -33 -138t-133 -97l-33 63q78 45 101.5 76t23.5 97zM-25 592l125 148h60l126 -148h-83l-72 84l-73 -84h-83z" />
<glyph unicode="&#x136;" horiz-adv-x="595" d="M466 0l-184 306l-115 -4v-302h-77v696h77v-321l113 4l177 317h89l-198 -348l209 -348h-91zM235 -285l41 207h74l-50 -207h-65z" />
<glyph unicode="&#x137;" horiz-adv-x="497" d="M162 0h-75v718h75v-419l77 4l149 197h84l-167 -230l170 -270h-85l-150 229l-78 -4v-225zM186 -285l41 207h74l-50 -207h-65z" />
<glyph unicode="&#x139;" horiz-adv-x="512" d="M471 0h-381v696h77v-622h304v-74zM135 845l218 95l27 -70l-220 -86z" />
<glyph unicode="&#x13a;" horiz-adv-x="242" d="M84 0v718h74v-718h-74zM-1 859l218 95l27 -70l-220 -86z" />

<glyph unicode="&#x13b;" horiz-adv-x="513" d="M471 0h-381v696h77v-622h304v-74zM199 -285l41 207h74l-50 -207h-65z" />
<glyph unicode="&#x13c;" horiz-adv-x="242" d="M84 0v718h74v-718h-74zM41 -285l41 207h74l-50 -207h-65z" />
<glyph unicode="&#x13d;" horiz-adv-x="513" d="M471 0h-381v696h77v-622h304v-74zM444 696v-234h-72v234h72z" />
<glyph unicode="&#x13e;" horiz-adv-x="432" d="M84 0v718h74v-718h-74zM352 696v-234h-72v234h72z" />
<glyph unicode="&#x141;" horiz-adv-x="513" d="M471 0h-381v277l-64 -45l-38 52l102 71v341h77v-287l165 116l38 -52l-203 -142v-257h304v-74z" />
<glyph unicode="&#x142;" horiz-adv-x="289" d="M107 0v279l-67 -47l-38 52l105 73v361h74v-309l74 52l38 -52l-112 -79v-330h-74z" />
<glyph unicode="&#x143;" horiz-adv-x="693" d="M90 0v696h138l276 -606h22v606h77v-696h-135l-280 606h-21v-606h-77zM223 845l218 95l27 -70l-220 -86z" />
<glyph unicode="&#x144;" horiz-adv-x="568" d="M162 0h-75v500h75v-33q84 43 155 43q100 0 134 -54.5t34 -195.5v-260h-74v259q0 105 -20 143.5t-86 38.5t-143 -37v-404zM162 655l218 95l27 -70l-220 -86z" />
<glyph unicode="&#x145;" horiz-adv-x="693" d="M90 0v696h138l276 -606h22v606h77v-696h-135l-280 606h-21v-606h-77zM288 -285l41 207h74l-50 -207h-65z" />
<glyph unicode="&#x146;" horiz-adv-x="568" d="M162 0h-75v500h75v-33q84 43 155 43q100 0 134 -54.5t34 -195.5v-260h-74v259q0 105 -20 143.5t-86 38.5t-143 -37v-404zM220 -285l41 207h74l-50 -207h-65z" />
<glyph unicode="&#x147;" horiz-adv-x="693" d="M90 0v696h138l276 -606h22v606h77v-696h-135l-280 606h-21v-606h-77zM512 929l-133 -134h-66l-134 134h89l78 -76l79 76h87z" />
<glyph unicode="&#x148;" horiz-adv-x="568" d="M162 0h-75v500h75v-33q84 43 155 43q100 0 134 -54.5t34 -195.5v-260h-74v259q0 105 -20 143.5t-86 38.5t-143 -37v-404zM253 592l-124 148h83l73 -83l72 83h83l-125 -148h-62z" />
<glyph unicode="&#x14a;" horiz-adv-x="693" d="M90 0v696h138l276 -606h22v606h77v-696v-8q0 -62 -10 -98.5t-36.5 -54.5t-57 -23t-86.5 -5v72q70 0 91.5 19t21.5 98h-58l-280 606h-21v-606h-77z" />
<glyph unicode="&#x14b;" horiz-adv-x="568" d="M162 0h-75v500h75v-33q86 43 157 43q96 0 131.5 -57.5t35.5 -192.5v-262q0 -93 -31 -138t-130 -97l-32 63q75 43 96.5 74t21.5 96v263q0 100 -20.5 141.5t-82.5 41.5q-30 0 -66.5 -9t-57.5 -19l-22 -9v-405z" />
<glyph unicode="&#x14c;" horiz-adv-x="651" d="M326 63q115 0 154.5 64.5t39.5 216.5q0 148 -41 218.5t-153 70.5q-113 0 -153.5 -69.5t-40.5 -219.5q0 -149 39.5 -215t154.5 -66zM326 -10q-155 0 -214.5 85t-59.5 269q0 183 60.5 272.5t213.5 89.5t213 -89t60 -273q0 -187 -59 -270.5t-214 -83.5zM168 826v66h311v-66 h-311z" />
<glyph unicode="&#x14d;" horiz-adv-x="528" d="M265 510q112 0 162.5 -62.5t50.5 -192.5q0 -137 -46 -201t-167 -64q-123 0 -169 62t-46 205q0 132 49.5 192.5t165.5 60.5zM265 57q83 0 109.5 45t26.5 153q0 100 -32 143.5t-104 43.5q-79 0 -108.5 -40.5t-29.5 -144.5q0 -112 27 -156t111 -44zM118 634v66h291v-66h-291 z" />
<glyph unicode="&#x14e;" horiz-adv-x="651" d="M326 63q115 0 154.5 64.5t39.5 216.5q0 148 -41 218.5t-153 70.5q-113 0 -153.5 -69.5t-40.5 -219.5q0 -149 39.5 -215t154.5 -66zM326 -10q-155 0 -214.5 85t-59.5 269q0 183 60.5 272.5t213.5 89.5t213 -89t60 -273q0 -187 -59 -270.5t-214 -83.5zM168 926h77 q1 -31 24 -49.5t57 -18.5t57 18.5t24 49.5h76q-3 -60 -45.5 -96t-111.5 -36t-112 36t-46 96z" />

<glyph unicode="&#x14f;" horiz-adv-x="528" d="M265 510q112 0 162.5 -62.5t50.5 -192.5q0 -137 -46 -201t-167 -64q-123 0 -169 62t-46 205q0 132 49.5 192.5t165.5 60.5zM265 57q83 0 109.5 45t26.5 153q0 100 -32 143.5t-104 43.5q-79 0 -108.5 -40.5t-29.5 -144.5q0 -112 27 -156t111 -44zM103 733h77 q2 -34 24 -54.5t60 -20.5t60 20.5t24 54.5h76q-3 -63 -45.5 -102.5t-114.5 -39.5q-73 0 -115.5 39.5t-45.5 102.5z" />
<glyph unicode="&#x150;" horiz-adv-x="651" d="M326 63q115 0 154.5 64.5t39.5 216.5q0 148 -41 218.5t-153 70.5q-113 0 -153.5 -69.5t-40.5 -219.5q0 -149 39.5 -215t154.5 -66zM326 -10q-155 0 -214.5 85t-59.5 269q0 183 60.5 272.5t213.5 89.5t213 -89t60 -273q0 -187 -59 -270.5t-214 -83.5zM339 805l142 131 l59 -36l-146 -129zM138 805l142 132l58 -36l-145 -129z" />
<glyph unicode="&#x151;" horiz-adv-x="528" d="M265 510q112 0 162.5 -62.5t50.5 -192.5q0 -137 -46 -201t-167 -64q-123 0 -169 62t-46 205q0 132 49.5 192.5t165.5 60.5zM265 57q83 0 109.5 45t26.5 153q0 100 -32 143.5t-104 43.5q-79 0 -108.5 -40.5t-29.5 -144.5q0 -112 27 -156t111 -44zM285 624l144 139l55 -43 l-148 -138zM92 624l145 138l54 -42l-148 -138z" />
<glyph unicode="&#x152;" horiz-adv-x="944" d="M880 -1h-413q-90 -9 -142 -9q-153 0 -209 84t-56 271q0 189 58 275t207 86q79 0 141 -10h414v-74h-338v-229h278v-74h-278v-245h338v-75zM334 65q50 0 132 7v550q-105 9 -133 9q-113 0 -153 -65t-40 -220t38.5 -218t155.5 -63z" />
<glyph unicode="&#x153;" horiz-adv-x="876" d="M618 58q33 0 79 2.5t75 4.5l29 2l2 -61q-113 -16 -194 -16q-118 0 -163 83q-41 -83 -172 -83q-123 0 -169 62t-46 205q0 132 49.5 192.5t165.5 60.5q132 0 175 -94q48 94 171 94q101 0 151 -56.5t50 -177.5l-4 -58h-331q1 -82 31 -121t101 -39zM274 57q83 0 109.5 45 t26.5 153q0 100 -32 143.5t-104 43.5q-79 0 -108.5 -40.5t-29.5 -144.5q0 -112 27 -156t111 -44zM486 279h260q0 89 -30 126.5t-96 37.5q-134 0 -134 -164z" />
<glyph unicode="&#x154;" horiz-adv-x="623" d="M488 0l-125 263h-196v-263h-77v696h256q113 0 167 -50.5t54 -161.5q0 -162 -127 -201l133 -283h-85zM488 484q0 72 -34.5 105.5t-107.5 33.5h-179v-287h180q141 0 141 148zM189 845l218 95l27 -70l-220 -86z" />
<glyph unicode="&#x155;" horiz-adv-x="356" d="M87 0v500h75v-66q77 58 174 76v-78q-42 -8 -85.5 -25t-66.5 -31l-22 -13v-363h-75zM68 655l218 95l27 -70l-220 -86z" />
<glyph unicode="&#x156;" horiz-adv-x="624" d="M488 0l-125 263h-196v-263h-77v696h256q113 0 167 -50.5t54 -161.5q0 -162 -127 -201l133 -283h-85zM488 484q0 72 -34.5 105.5t-107.5 33.5h-179v-287h180q141 0 141 148zM253 -285l41 207h74l-50 -207h-65z" />
<glyph unicode="&#x157;" horiz-adv-x="356" d="M87 0v500h75v-66q77 58 174 76v-78q-42 -8 -85.5 -25t-66.5 -31l-22 -13v-363h-75zM44 -285l41 207h74l-50 -207h-65z" />
<glyph unicode="&#x158;" horiz-adv-x="623" d="M488 0l-125 263h-196v-263h-77v696h256q113 0 167 -50.5t54 -161.5q0 -162 -127 -201l133 -283h-85zM488 484q0 72 -34.5 105.5t-107.5 33.5h-179v-287h180q141 0 141 148zM478 929l-133 -134h-66l-134 134h89l78 -76l79 76h87z" />
<glyph unicode="&#x159;" horiz-adv-x="356" d="M87 0v500h75v-66q77 58 174 76v-78q-42 -8 -85.5 -25t-66.5 -31l-22 -13v-363h-75zM159 592l-124 148h83l73 -83l72 83h83l-125 -148h-62z" />
<glyph unicode="&#x15a;" horiz-adv-x="534" d="M475 687l-7 -70q-138 16 -196 16q-151 0 -151 -110q0 -64 34.5 -87.5t135.5 -45.5q111 -25 155 -63t44 -126q0 -210 -224 -210l-213 21l8 70q133 -17 204 -17q75 0 111 31t36 102q0 56 -32.5 80.5t-121.5 41.5q-117 25 -165.5 65t-48.5 136q0 186 228 186zM148 845 l218 95l27 -70l-220 -86z" />
<glyph unicode="&#x15b;" horiz-adv-x="489" d="M416 491l-2 -65q-111 16 -175 16q-108 0 -108 -75q0 -35 24 -50t98 -26q103 -16 141.5 -45.5t38.5 -99.5q0 -84 -49.5 -120t-145.5 -36l-176 19l4 65q114 -17 165 -17q65 0 95.5 18.5t30.5 67.5q0 38 -24.5 53t-101.5 27q-98 15 -137 43t-39 98q0 76 51.5 111t128.5 35z M122 655l218 95l27 -70l-220 -86z" />
<glyph unicode="&#x15c;" horiz-adv-x="534" d="M475 687l-7 -70q-138 16 -196 16q-151 0 -151 -110q0 -64 34.5 -87.5t135.5 -45.5q111 -25 155 -63t44 -126q0 -210 -224 -210l-213 21l8 70q133 -17 204 -17q75 0 111 31t36 102q0 56 -32.5 80.5t-121.5 41.5q-117 25 -165.5 65t-48.5 136q0 186 228 186zM105 796 l133 135h67l133 -135h-87l-79 75l-78 -75h-89z" />
<glyph unicode="&#x15d;" horiz-adv-x="489" d="M416 491l-2 -65q-111 16 -175 16q-108 0 -108 -75q0 -35 24 -50t98 -26q103 -16 141.5 -45.5t38.5 -99.5q0 -84 -49.5 -120t-145.5 -36l-176 19l4 65q114 -17 165 -17q65 0 95.5 18.5t30.5 67.5q0 38 -24.5 53t-101.5 27q-98 15 -137 43t-39 98q0 76 51.5 111t128.5 35z M89 592l125 148h60l126 -148h-83l-72 84l-73 -84h-83z" />
<glyph unicode="&#x15e;" horiz-adv-x="534" d="M405 -127q0 -90 -94 -90q-20 0 -41.5 1.5t-33.5 3.5l-11 2l3 48q39 -3 66 -3q44 0 44 38q0 34 -44 34h-42v84q-35 1 -84.5 6t-81.5 10l-33 5l8 70q133 -17 204 -17q75 0 111 31t36 102q0 56 -32.5 80.5t-121.5 41.5q-117 25 -165.5 65t-48.5 136q0 186 228 186l203 -20 l-7 -70q-138 16 -196 16q-151 0 -151 -110q0 -64 34.5 -87.5t135.5 -45.5q111 -25 155 -63t44 -126q0 -196 -197 -209v-41q59 0 85.5 -16t26.5 -62z" />
<glyph unicode="&#x15f;" horiz-adv-x="489" d="M367 -127q0 -90 -94 -90q-20 0 -41.5 1.5t-33.5 3.5l-11 2l3 48q39 -3 66 -3q44 0 44 38q0 34 -44 34h-42v84q-29 1 -67 5.5t-61 8.5l-24 4l4 65q114 -17 165 -17q65 0 95.5 18.5t30.5 67.5q0 38 -24.5 53t-101.5 27q-98 15 -137 43t-39 98q0 76 51.5 111t128.5 35 l181 -19l-2 -65q-111 16 -175 16q-108 0 -108 -75q0 -35 24 -50t98 -26q103 -16 141.5 -45.5t38.5 -99.5q0 -81 -45 -117t-133 -39v-39q59 0 85.5 -16t26.5 -62z" />

<glyph unicode="&#x160;" horiz-adv-x="534" d="M475 687l-7 -70q-138 16 -196 16q-151 0 -151 -110q0 -64 34.5 -87.5t135.5 -45.5q111 -25 155 -63t44 -126q0 -210 -224 -210l-213 21l8 70q133 -17 204 -17q75 0 111 31t36 102q0 56 -32.5 80.5t-121.5 41.5q-117 25 -165.5 65t-48.5 136q0 186 228 186zM440 932 l-133 -134h-66l-134 134h89l78 -76l79 76h87z" />
<glyph unicode="&#x161;" horiz-adv-x="489" d="M416 491l-2 -65q-111 16 -175 16q-108 0 -108 -75q0 -35 24 -50t98 -26q103 -16 141.5 -45.5t38.5 -99.5q0 -84 -49.5 -120t-145.5 -36l-176 19l4 65q114 -17 165 -17q65 0 95.5 18.5t30.5 67.5q0 38 -24.5 53t-101.5 27q-98 15 -137 43t-39 98q0 76 51.5 111t128.5 35z M221 592l-124 148h83l73 -83l72 83h83l-125 -148h-62z" />
<glyph unicode="&#x162;" horiz-adv-x="492" d="M-4 622v74h500v-74h-211v-622h-76v622h-213zM188 -285l41 207h74l-50 -207h-65z" />
<glyph unicode="&#x163;" horiz-adv-x="366" d="M331 432h-158v-233q0 -86 12 -112.5t60 -26.5l89 5l4 -65q-66 -11 -101 -11q-79 0 -109 38.5t-30 144.5v260h-71v68h71v153h75v-153h158v-68zM123 -285l41 207h74l-50 -207h-65z" />
<glyph unicode="&#x164;" horiz-adv-x="492" d="M-4 622v74h500v-74h-211v-622h-76v622h-213zM413 929l-133 -134h-66l-134 134h89l78 -76l79 76h87z" />
<glyph unicode="&#x165;" horiz-adv-x="528" d="M331 432h-158v-233q0 -86 12 -112.5t60 -26.5l89 5l4 -65q-66 -11 -101 -11q-79 0 -109 38.5t-30 144.5v260h-71v68h71v153h75v-153h158v-68zM472 696v-234h-72v234h72z" />
<glyph unicode="&#x166;" horiz-adv-x="492" d="M50 300v66h159v256h-213v74h500v-74h-211v-256h169v-66h-169v-300h-76v300h-159z" />
<glyph unicode="&#x167;" horiz-adv-x="366" d="M331 432h-158v-137h-75v137h-71v68h71v153h75v-153h158v-68zM245 60l89 5l4 -65q-66 -11 -101 -11q-79 0 -109 38.5t-30 144.5v57h75v-30q0 -86 12 -112.5t60 -26.5zM315 229h-142v66h142v-66zM36 229v66h62v-66h-62z" />
<glyph unicode="&#x168;" horiz-adv-x="644" d="M155 210q0 -145 162 -145q83 0 126 33.5t43 111.5v486h76v-486q0 -115 -61.5 -167t-183.5 -52q-118 0 -178.5 51.5t-60.5 167.5v486h77v-486zM480 918l18 -58q-53 -58 -93 -58q-25 0 -86.5 28t-76.5 28q-11 0 -31 -12t-35 -24l-14 -13l-17 58q55 60 96 60q28 0 89 -27.5 t74 -27.5q9 0 28 11.5t34 22.5z" />
<glyph unicode="&#x169;" horiz-adv-x="559" d="M397 500h74v-500h-74v32q-78 -42 -148 -42q-102 0 -135.5 53t-33.5 196v261h74v-260q0 -109 19 -146t87 -37q29 0 63.5 9.5t54.5 18.5l19 9v406zM422 721l17 -58q-46 -51 -86 -51q-24 0 -79 25t-69 25q-24 0 -74 -43l-18 57q51 54 92 54q27 0 80.5 -24.5t66.5 -24.5 q22 0 70 40z" />
<glyph unicode="&#x16a;" horiz-adv-x="644" d="M155 210q0 -145 162 -145q83 0 126 33.5t43 111.5v486h76v-486q0 -115 -61.5 -167t-183.5 -52q-118 0 -178.5 51.5t-60.5 167.5v486h77v-486zM166 826v66h311v-66h-311z" />
<glyph unicode="&#x16b;" horiz-adv-x="559" d="M397 500h74v-500h-74v32q-78 -42 -148 -42q-102 0 -135.5 53t-33.5 196v261h74v-260q0 -109 19 -146t87 -37q29 0 63.5 9.5t54.5 18.5l19 9v406zM134 634v66h291v-66h-291z" />
<glyph unicode="&#x16c;" horiz-adv-x="644" d="M155 210q0 -145 162 -145q83 0 126 33.5t43 111.5v486h76v-486q0 -115 -61.5 -167t-183.5 -52q-118 0 -178.5 51.5t-60.5 167.5v486h77v-486zM165 926h76q1 -31 24 -49.5t57 -18.5t57 18.5t24 49.5h76q-3 -60 -45.5 -96t-111.5 -36t-111.5 36t-45.5 96z" />
<glyph unicode="&#x16d;" horiz-adv-x="559" d="M397 500h74v-500h-74v32q-78 -42 -148 -42q-102 0 -135.5 53t-33.5 196v261h74v-260q0 -109 19 -146t87 -37q29 0 63.5 9.5t54.5 18.5l19 9v406zM118 733h77q2 -34 24 -54.5t60 -20.5t60 20.5t24 54.5h76q-3 -63 -45.5 -102.5t-114.5 -39.5q-73 0 -115.5 39.5 t-45.5 102.5z" />
<glyph unicode="&#x16e;" horiz-adv-x="644" d="M155 210q0 -145 162 -145q83 0 126 33.5t43 111.5v486h76v-486q0 -115 -61.5 -167t-183.5 -52q-118 0 -178.5 51.5t-60.5 167.5v486h77v-486zM440 846q0 -50 -33 -78t-85 -28t-85 28t-33 78q0 49 33 77t85 28t85 -28t33 -77zM265 846q0 -24 15 -37.5t42 -13.5 q26 0 41.5 13.5t15.5 37.5t-15 37t-42 13q-57 0 -57 -50z" />
<glyph unicode="&#x16f;" horiz-adv-x="559" d="M397 500h74v-500h-74v32q-78 -42 -148 -42q-102 0 -135.5 53t-33.5 196v261h74v-260q0 -109 19 -146t87 -37q29 0 63.5 9.5t54.5 18.5l19 9v406zM180 645q0 44 30 74t74 30q43 0 73 -30t30 -74t-29.5 -74t-73.5 -30t-74 30t-30 74zM235 645q0 -21 14.5 -36t35.5 -15 q20 0 34 15t14 36q0 20 -14 35t-34 15q-21 0 -35.5 -14.5t-14.5 -35.5z" />
<glyph unicode="&#x170;" horiz-adv-x="644" d="M155 210q0 -145 162 -145q83 0 126 33.5t43 111.5v486h76v-486q0 -115 -61.5 -167t-183.5 -52q-118 0 -178.5 51.5t-60.5 167.5v486h77v-486zM350 789l141 131l60 -36l-147 -129zM148 789l142 132l59 -36l-146 -129z" />

<glyph unicode="&#x171;" horiz-adv-x="559" d="M397 500h74v-500h-74v32q-78 -42 -148 -42q-102 0 -135.5 53t-33.5 196v261h74v-260q0 -109 19 -146t87 -37q29 0 63.5 9.5t54.5 18.5l19 9v406zM314 624l144 139l55 -43l-148 -138zM121 624l145 138l54 -42l-148 -138z" />
<glyph unicode="&#x172;" horiz-adv-x="644" d="M429 -135l7 -62q-45 -9 -79 -9q-40 0 -66 23.5t-26 63.5q0 46 64 110h-12q-118 0 -178.5 51.5t-60.5 167.5v486h77v-486q0 -145 162 -145q83 0 126 33.5t43 111.5v486h76v-486q0 -174 -150 -210q-68 -68 -68 -100q0 -17 9.5 -28.5t26.5 -11.5z" />
<glyph unicode="&#x173;" horiz-adv-x="559" d="M397 500h74v-500h-2l1 1l-65 7q-3 -3 -8 -7v31q-78 -42 -148 -42q-102 0 -135.5 53t-33.5 196v261h74v-260q0 -109 19 -146t87 -37q29 0 63.5 9.5t54.5 18.5l19 9v406zM486 -135l7 -62q-45 -9 -79 -9q-40 0 -66 23.5t-26 63.5q0 31 25 64.5t50 55.5v-1h72 q-68 -68 -68 -100q0 -17 9.5 -28.5t26.5 -11.5z" />
<glyph unicode="&#x174;" horiz-adv-x="900" d="M37 696h79l127 -619h29l134 613h87l138 -613h29l124 619h79l-148 -696h-140l-125 581l-123 -581h-139zM283 796l133 135h67l133 -135h-87l-79 75l-78 -75h-89z" />
<glyph unicode="&#x175;" horiz-adv-x="757" d="M28 500h75l100 -432h16l120 422h79l119 -422h16l101 432h75l-119 -500h-127l-105 391l-107 -391h-125zM223 592l125 148h60l126 -148h-83l-72 84l-73 -84h-83z" />
<glyph unicode="&#x176;" horiz-adv-x="552" d="M316 298v-298h-77v299l-220 397h86l172 -312l170 312h86zM110 796l133 135h67l133 -135h-87l-79 75l-78 -75h-89z" />
<glyph unicode="&#x177;" horiz-adv-x="482" d="M24 500h75l125 -428h34l125 428h75l-208 -722h-75l64 222h-73zM86 592l125 148h60l126 -148h-83l-72 84l-73 -84h-83z" />
<glyph unicode="&#x178;" horiz-adv-x="552" d="M316 298v-298h-77v299l-220 397h86l172 -312l170 312h86zM135 820v90h73v-90h-73zM342 820v90h72v-90h-72z" />
<glyph unicode="&#x179;" horiz-adv-x="570" d="M60 622v74h450v-95l-357 -509v-19h357v-74h-450v95l357 508v20h-357zM162 845l218 95l27 -70l-220 -86z" />
<glyph unicode="&#x17a;" horiz-adv-x="479" d="M54 432v68h371v-68l-281 -364h281v-68h-371v68l281 364h-281zM114 655l218 95l27 -70l-220 -86z" />
<glyph unicode="&#x17b;" horiz-adv-x="570" d="M60 622v74h450v-95l-357 -509v-19h357v-74h-450v95l357 508v20h-357zM247 818v87h75v-87h-75z" />
<glyph unicode="&#x17c;" horiz-adv-x="479" d="M54 432v68h371v-68l-281 -364h281v-68h-371v68l281 364h-281zM202 609v87h75v-87h-75z" />
<glyph unicode="&#x17d;" horiz-adv-x="570" d="M60 622v74h450v-95l-357 -509v-19h357v-74h-450v95l357 508v20h-357zM454 932l-133 -134h-66l-134 134h89l78 -76l79 76h87z" />
<glyph unicode="&#x17e;" horiz-adv-x="479" d="M54 432v68h371v-68l-281 -364h281v-68h-371v68l281 364h-281zM199 592l-124 148h83l73 -83l72 83h83l-125 -148h-62z" />
<glyph unicode="&#x192;" d="M312 -66q0 -98 -38 -138.5t-112 -40.5l-92 7l1 61l7 -1h17.5t22.5 -0.5l24 -1t20 -0.5q76 0 76 114v428h-63v68h63v54q0 102 24 147.5t87 53.5q12 2 41 2l83 -6l-1 -63q-55 2 -85 2q-75 0 -75 -115v-75h146v-68h-146v-428z" />
<glyph unicode="&#x1fa;" horiz-adv-x="604" d="M420 744q0 -42 -26 -70l181 -673h-76l-53 174h-290l-50 -175h-77l183 671q-29 27 -29 73q0 50 33 78t86 28q52 0 85 -28t33 -78zM277 625l-103 -376h256l-103 376h-50zM176 939l218 95l27 -70l-220 -86zM244 744q0 -40 38 -48h39q38 8 38 48q0 24 -15.5 37.5t-41.5 13.5 q-27 0 -42.5 -13.5t-15.5 -37.5z" />
<glyph unicode="&#x1fb;" horiz-adv-x="522" d="M433 347v-246q2 -39 58 -46l-3 -65q-81 0 -118 38q-90 -38 -185 -38q-65 0 -100.5 40t-35.5 113q0 71 37 106t115 42l158 15v41q0 91 -87 91l-191 -13l-3 65q120 20 197 20q80 0 119 -39.5t39 -123.5zM359 245l-148 -12q-86 -8 -86 -88q0 -43 18.5 -66.5t52.5 -23.5 t74.5 7.5t64.5 15.5l24 7v160zM151 637q0 44 30 74t74 30q43 0 73 -30t30 -74t-29.5 -74t-73.5 -30t-74 30t-30 74zM206 637q0 -21 14 -36t35 -15t35 15t14 36t-14 35.5t-35 14.5t-35 -14.5t-14 -35.5zM139 837l218 95l27 -70l-220 -86z" />

<glyph unicode="&#x1fc;" horiz-adv-x="832" d="M429 0v175h-251l-59 -175h-79l224 696h585v-73h-344v-230h284v-73h-284v-247h344v-73h-420zM320 623l-121 -374h230v374h-109zM311 845l218 95l27 -70l-220 -86z" />
<glyph unicode="&#x1fd;" horiz-adv-x="828" d="M570 58q33 0 78.5 2.5t75.5 4.5l29 2l2 -61q-113 -16 -194 -16q-101 0 -147 54l-32 -14q-93 -40 -192 -40q-67 0 -101.5 39.5t-34.5 113.5q0 80 40.5 110.5t139.5 40.5l129 12v41q0 91 -86 91q-33 0 -80.5 -2.5t-78.5 -5.5l-32 -2l-2 67q119 15 196 15q102 0 135 -73 q48 73 156 73q101 0 151.5 -56.5t50.5 -177.5l-4 -58h-331q0 -82 30 -121t102 -39zM201 55q46 0 105 14.5t74 22.5q-18 51 -18 153l-147 -12q-44 -4 -64.5 -25t-20.5 -63q0 -90 71 -90zM438 279h260q0 89 -30 126.5t-97 37.5q-66 0 -99.5 -39t-33.5 -125zM302 655l218 95 l27 -70l-220 -86z" />
<glyph unicode="&#x1fe;" horiz-adv-x="656" d="M326 -10q-64 0 -115 16l-58 -124l-68 30l60 128q-93 74 -93 304q0 183 60.5 272.5t213.5 89.5q67 0 121 -19l53 114l70 -27l-59 -126q88 -80 88 -304q0 -187 -59 -270.5t-214 -83.5zM132 344q0 -168 49 -227l233 500q-35 16 -88 16q-113 0 -153.5 -69.5t-40.5 -219.5z M326 63q115 0 154.5 64.5t39.5 216.5q0 161 -46 225l-231 -494q35 -12 83 -12zM196 845l218 95l27 -70l-220 -86z" />
<glyph unicode="&#x1ff;" horiz-adv-x="528" d="M265 510q38 0 73 -8l42 104l51 -19l-44 -105q91 -53 91 -227q0 -137 -46 -201t-167 -64q-42 0 -77 8l-44 -110l-50 18l44 110q-48 27 -68 85t-20 156q0 132 49.5 192.5t165.5 60.5zM265 57q83 0 109.5 45t26.5 153q0 116 -45 157l-143 -350q19 -5 52 -5zM265 442 q-79 0 -108.5 -40.5t-29.5 -144.5q0 -71 9 -112t33 -62l143 353q-21 6 -47 6zM141 655l218 95l27 -70l-220 -86z" />
<glyph unicode="&#x218;" horiz-adv-x="534" d="M475 687l-7 -70q-138 16 -196 16q-151 0 -151 -110q0 -64 34.5 -87.5t135.5 -45.5q111 -25 155 -63t44 -126q0 -210 -224 -210l-213 21l8 70q133 -17 204 -17q75 0 111 31t36 102q0 56 -32.5 80.5t-121.5 41.5q-117 25 -165.5 65t-48.5 136q0 186 228 186zM202 -285 l41 207h74l-50 -207h-65z" />
<glyph unicode="&#x219;" horiz-adv-x="489" d="M416 491l-2 -65q-111 16 -175 16q-108 0 -108 -75q0 -35 24 -50t98 -26q103 -16 141.5 -45.5t38.5 -99.5q0 -84 -49.5 -120t-145.5 -36l-176 19l4 65q114 -17 165 -17q65 0 95.5 18.5t30.5 67.5q0 38 -24.5 53t-101.5 27q-98 15 -137 43t-39 98q0 76 51.5 111t128.5 35z M185 -285l41 207h74l-50 -207h-65z" />
<glyph unicode="&#x2c6;" horiz-adv-x="236" d="M-25 592l125 148h60l126 -148h-83l-72 84l-73 -84h-83z" />
<glyph unicode="&#x2c7;" horiz-adv-x="236" d="M101 592l-124 148h83l73 -83l72 83h83l-125 -148h-62z" />
<glyph unicode="&#x2d8;" horiz-adv-x="236" d="M-29 733h77q2 -34 23.5 -54.5t59.5 -20.5q39 0 61 20.5t23 54.5h77q-3 -63 -45.5 -102.5t-115.5 -39.5q-72 0 -114.5 39.5t-45.5 102.5z" />
<glyph unicode="&#x2d9;" horiz-adv-x="236" d="M81 609v87h74v-87h-74z" />
<glyph unicode="&#x2da;" horiz-adv-x="236" d="M18 645q0 44 30 74t74 30q43 0 73 -30t30 -74t-29.5 -74t-73.5 -30t-74 30t-30 74zM73 645q0 -21 14 -36t35 -15t35 15t14 36t-14 35.5t-35 14.5t-35 -14.5t-14 -35.5z" />
<glyph unicode="&#x2db;" horiz-adv-x="450" d="M352 -135l7 -62q-45 -9 -79 -9q-40 0 -66 23.5t-26 63.5q0 26 21 58t41 51l21 18l65 -7q-69 -68 -69 -101q0 -17 9.5 -28.5t26.5 -11.5z" />
<glyph unicode="&#x2dc;" horiz-adv-x="236" d="M274 721l17 -58q-46 -51 -87 -51q-24 0 -78 25t-69 25q-24 0 -74 -43l-18 57q51 54 92 54q26 0 80 -24.5t67 -24.5q21 0 70 40z" />
<glyph unicode="&#x2dd;" horiz-adv-x="236" d="M142 624l145 139l54 -43l-148 -138zM-51 624l145 138l54 -42l-147 -138z" />
<glyph unicode="&#x300;" horiz-adv-x="236" d="M41 749l218 -94l-24 -58l-220 86z" />
<glyph unicode="&#x301;" horiz-adv-x="236" d="M2 655l218 95l27 -70l-220 -86z" />
<glyph unicode="&#x302;" horiz-adv-x="236" d="M-21 592l125 148h60l126 -148h-83l-72 84l-73 -84h-83z" />

<glyph unicode="&#x303;" horiz-adv-x="236" d="M274 721l17 -58q-46 -51 -87 -51q-24 0 -78 25t-69 25q-24 0 -74 -43l-18 57q51 54 92 54q26 0 80 -24.5t67 -24.5q21 0 70 40z" />
<glyph unicode="&#x304;" horiz-adv-x="236" d="M-22 634v66h291v-66h-291z" />
<glyph unicode="&#x306;" horiz-adv-x="236" d="M-29 733h77q2 -34 23.5 -54.5t59.5 -20.5q39 0 61 20.5t23 54.5h77q-3 -63 -45.5 -102.5t-115.5 -39.5q-72 0 -114.5 39.5t-45.5 102.5z" />
<glyph unicode="&#x307;" horiz-adv-x="236" d="M81 609v87h74v-87h-74z" />
<glyph unicode="&#x308;" horiz-adv-x="236" d="M-12 625v90h72v-90h-72zM188 625v90h73v-90h-73z" />
<glyph unicode="&#x30a;" horiz-adv-x="236" d="M20 645q0 44 30 74t74 30q43 0 73 -30t30 -74t-29.5 -74t-73.5 -30t-74 30t-30 74zM75 645q0 -21 14 -36t35 -15t35 15t14 36t-14 35.5t-35 14.5t-35 -14.5t-14 -35.5z" />
<glyph unicode="&#x30b;" horiz-adv-x="236" d="M142 624l145 139l54 -43l-148 -138zM-51 624l145 138l54 -42l-147 -138z" />
<glyph unicode="&#x30c;" horiz-adv-x="236" d="M96 592l-124 148h83l73 -83l72 83h83l-125 -148h-62z" />
<glyph unicode="&#x312;" horiz-adv-x="170" d="M138 796l-41 -207h-74l50 207h65z" />
<glyph unicode="&#x315;" horiz-adv-x="151" d="M109 696v-234h-72v234h72z" />
<glyph unicode="&#x326;" horiz-adv-x="170" d="M23 -285l41 207h74l-50 -207h-65z" />
<glyph unicode="&#x327;" horiz-adv-x="570" d="M428 -127q0 -90 -94 -90q-20 0 -41.5 1.5t-32.5 3.5l-12 2l3 48q39 -3 66 -3q44 0 44 38q0 34 -44 34h-42v94h41v-50q59 0 85.5 -16t26.5 -62z" />
<glyph unicode="&#x328;" horiz-adv-x="450" d="M352 -135l7 -62q-45 -9 -79 -9q-40 0 -66 23.5t-26 63.5q0 26 21 58t41 51l21 18l65 -7q-69 -68 -69 -101q0 -17 9.5 -28.5t26.5 -11.5z" />
<glyph unicode="&#x394;" d="M40 61l159 611h136l158 -612l1 -60h-454v61zM278 602h-22l-137 -532h295z" />
<glyph unicode="&#x2206;" d="M40 61l159 611h136l158 -612l1 -60h-454v61zM278 602h-22l-137 -532h295z" />
<glyph unicode="&#x3a9;" d="M30 56h119q-4 6 -11 18t-25 47.5t-32 71t-25 85t-11 92.5q0 158 47.5 229t172.5 71t172.5 -71t47.5 -229q0 -69 -26.5 -147.5t-52.5 -122.5l-26 -44h120v-65h-197v55l11 19.5t25 50t32 73t25 82.5t11 85q0 130 -27.5 185.5t-114.5 55.5q-38 0 -63.5 -10.5t-41 -28 t-24 -50t-11 -66.5t-2.5 -86q0 -60 26 -137.5t52 -124.5l26 -48v-55h-197v65z" />
<glyph unicode="&#x2126;" d="M30 56h119q-4 6 -11 18t-25 47.5t-32 71t-25 85t-11 92.5q0 158 47.5 229t172.5 71t172.5 -71t47.5 -229q0 -69 -26.5 -147.5t-52.5 -122.5l-26 -44h120v-65h-197v55l11 19.5t25 50t32 73t25 82.5t11 85q0 130 -27.5 185.5t-114.5 55.5q-38 0 -63.5 -10.5t-41 -28 t-24 -50t-11 -66.5t-2.5 -86q0 -60 26 -137.5t52 -124.5l26 -48v-55h-197v65z" />

<glyph unicode="&#x3c0;" d="M347 154v278h-156l-28 -432h-75l28 432q-71 -3 -112 -13v68q25 5 62.5 8t62.5 4l25 1h216q95 0 144 16v-68q-30 -12 -92 -15v-279q0 -56 17.5 -74t69.5 -18v-66q-99 0 -130.5 32t-31.5 126z" />
<glyph unicode="&#x1e80;" horiz-adv-x="900" d="M37 696h79l127 -619h29l134 613h87l138 -613h29l124 619h79l-148 -696h-140l-125 581l-123 -581h-139zM358 935l218 -94l-25 -62l-221 87z" />
<glyph unicode="&#x1e81;" horiz-adv-x="757" d="M28 500h75l100 -432h16l120 422h79l119 -422h16l101 432h75l-119 -500h-127l-105 391l-107 -391h-125zM283 749l218 -94l-24 -58l-220 86z" />
<glyph unicode="&#x1e82;" horiz-adv-x="900" d="M37 696h79l127 -619h29l134 613h87l138 -613h29l124 619h79l-148 -696h-140l-125 581l-123 -581h-139zM333 845l218 95l27 -70l-220 -86z" />
<glyph unicode="&#x1e83;" horiz-adv-x="757" d="M28 500h75l100 -432h16l120 422h79l119 -422h16l101 432h75l-119 -500h-127l-105 391l-107 -391h-125zM256 655l218 95l27 -70l-220 -86z" />
<glyph unicode="&#x1e84;" horiz-adv-x="900" d="M37 696h79l127 -619h29l134 613h87l138 -613h29l124 619h79l-148 -696h-140l-125 581l-123 -581h-139zM310 820v90h72v-90h-72zM516 820v90h73v-90h-73z" />
<glyph unicode="&#x1e85;" horiz-adv-x="757" d="M28 500h75l100 -432h16l120 422h79l119 -422h16l101 432h75l-119 -500h-127l-105 391l-107 -391h-125zM242 625v90h72v-90h-72zM442 625v90h73v-90h-73z" />
<glyph unicode="&#x1eab;" horiz-adv-x="533" d="M433 347v-246q2 -39 58 -46l-3 -65q-81 0 -118 38q-90 -38 -185 -38q-65 0 -100.5 40t-35.5 113q0 71 37 106t115 42l158 15v41q0 91 -87 91l-191 -13l-3 65q120 20 197 20q80 0 119 -39.5t39 -123.5zM359 245l-148 -12q-86 -8 -86 -88q0 -43 18.5 -66.5t52.5 -23.5 t74.5 7.5t64.5 15.5l24 7v160zM89 562l125 148h60l126 -148h-83l-72 84l-73 -84h-83zM381 845l17 -58q-46 -51 -87 -51q-23 0 -78 25t-69 25q-24 0 -74 -43l-18 57q51 54 92 54q26 0 80 -24.5t67 -24.5q21 0 70 40z" />
<glyph unicode="&#x1eb0;" horiz-adv-x="604" d="M29 0l190 696h169l187 -695h-76l-53 174h-290l-50 -175h-77zM277 625l-103 -376h256l-103 376h-50zM144 892h77q1 -31 23.5 -49t56.5 -18q35 0 57.5 18t23.5 49h77q-3 -59 -46 -95t-112 -36t-111.5 36t-45.5 95zM151 1091l218 -94l-24 -58l-220 86z" />
<glyph unicode="&#x1ec5;" horiz-adv-x="507" d="M258 58q33 0 79 2.5t75 4.5l29 2l2 -61q-113 -16 -194 -16q-109 0 -154 62.5t-45 194.5q0 263 210 263q101 0 151 -56.5t50 -177.5l-4 -58h-331q1 -82 30.5 -121t101.5 -39zM126 279h260q0 89 -30 126.5t-96 37.5q-134 0 -134 -164zM103 562l125 148h60l126 -148h-83 l-72 84l-73 -84h-83zM397 845l17 -58q-46 -51 -87 -51q-23 0 -78 25t-69 25q-24 0 -74 -43l-18 57q51 54 92 54q26 0 80 -24.5t67 -24.5q21 0 70 40z" />
<glyph unicode="&#x1ed7;" horiz-adv-x="534" d="M265 510q112 0 162.5 -62.5t50.5 -192.5q0 -137 -46 -201t-167 -64q-123 0 -169 62t-46 205q0 132 49.5 192.5t165.5 60.5zM265 57q83 0 109.5 45t26.5 153q0 100 -32 143.5t-104 43.5q-79 0 -108.5 -40.5t-29.5 -144.5q0 -112 27 -156t111 -44zM103 562l125 148h60 l126 -148h-83l-72 84l-73 -84h-83zM391 845l17 -58q-46 -51 -87 -51q-23 0 -78 25t-69 25q-24 0 -74 -43l-18 57q51 54 92 54q26 0 80 -24.5t67 -24.5q21 0 70 40z" />
<glyph unicode="&#x1ef2;" horiz-adv-x="552" d="M316 298v-298h-77v299l-220 397h86l172 -312l170 312h86zM190 935l218 -94l-25 -62l-221 87z" />
<glyph unicode="&#x1ef3;" horiz-adv-x="482" d="M24 500h75l125 -428h34l125 428h75l-208 -722h-75l64 222h-73zM145 749l218 -94l-24 -58l-220 86z" />
<glyph unicode="&#x1ef8;" horiz-adv-x="552" d="M316 298v-298h-77v299l-220 397h86l172 -312l170 312h86zM417 917l17 -58q-46 -51 -87 -51q-23 0 -78 25t-69 25q-24 0 -74 -43l-18 57q51 54 92 54q26 0 80 -24.5t67 -24.5q21 0 70 40z" />
<glyph unicode="&#x1ef9;" horiz-adv-x="482" d="M24 500h75l125 -428h34l125 428h75l-208 -722h-75l64 222h-73zM382 721l17 -58q-46 -51 -87 -51q-24 0 -78 25t-69 25q-24 0 -74 -43l-18 57q51 54 92 54q26 0 80 -24.5t67 -24.5q21 0 70 40z" />
<glyph unicode="&#x2013;" horiz-adv-x="500" d="M0 306h500v-70h-500v70z" />
<glyph unicode="&#x2014;" horiz-adv-x="1000" d="M0 306h1000v-70h-1000v70z" />

<glyph unicode="&#x2018;" horiz-adv-x="170" d="M134 727l-43 -219h-77l52 219h68z" />
<glyph unicode="&#x2019;" horiz-adv-x="170" d="M35 527l43 219h77l-52 -219h-68z" />
<glyph unicode="&#x201a;" horiz-adv-x="192" d="M147 116l-43 -219h-77l52 219h68z" />
<glyph unicode="&#x201c;" horiz-adv-x="381" d="M246 727l-43 -219h-90l52 219h81z" />
<glyph unicode="&#x201d;" horiz-adv-x="387" d="M69 506l43 219h77l-52 -219h-68zM225 506l43 219h77l-52 -219h-68z" />
<glyph unicode="&#x201e;" horiz-adv-x="366" d="M325 116l-43 -219h-77l52 219h68zM147 116l-43 -219h-77l52 219h68z" />
<glyph unicode="&#x2020;" d="M60 424v74h168v190h74v-190h168v-74h-168v-500h-74v500h-168z" />
<glyph unicode="&#x2021;" d="M228 -76v190h-168v72h168v238h-168v74h168v190h74v-190h167v-74h-167v-238h168v-72h-168v-190h-74z" />
<glyph unicode="&#x2022;" d="M142 106v286h246v-286h-246z" />
<glyph unicode="&#x2026;" horiz-adv-x="744" d="M86 0v114h81v-114h-81zM340 0v114h82v-114h-82zM595 0v114h81v-114h-81z" />
<glyph unicode="&#x2030;" horiz-adv-x="833" d="M129 650q-27 0 -38.5 -21t-11.5 -66q0 -90 50 -90q27 0 38.5 22t11.5 68q0 45 -11.5 66t-38.5 21zM153 4l187 705l54 -14l-188 -704zM19 563q0 138 110 138t110 -138q0 -71 -29 -106.5t-81 -35.5t-81 35.5t-29 106.5zM303 142q0 138 110 138t110 -139q0 -70 -29 -105.5 t-81 -35.5t-81 35.5t-29 106.5zM364 142q0 -91 49 -91q50 0 50 90q0 45 -11.5 66t-38.5 21q-26 0 -37.5 -20.5t-11.5 -65.5zM561 142q0 138 110 138t110 -139q0 -70 -29 -105.5t-81 -35.5t-81 35.5t-29 106.5zM621 142q0 -91 50 -91q27 0 38 22t11 68t-11 66.5t-38 20.5 t-38.5 -20.5t-11.5 -65.5z" />
<glyph unicode="&#x2039;" horiz-adv-x="311" d="M239 344l-124 -94l124 -105v-78l-189 151v60l189 143v-77z" />
<glyph unicode="&#x203a;" horiz-adv-x="311" d="M197 254l-125 94v77l189 -143v-60l-189 -151v78z" />
<glyph unicode="&#x2070;" horiz-adv-x="265" d="M134 800q60 0 89.5 -38t29.5 -128t-30 -128t-88 -38q-59 0 -89.5 38t-30.5 128t30 128t89 38zM134 741q-28 0 -40.5 -24t-12.5 -83q0 -61 13.5 -84t40.5 -23t39.5 22.5t12.5 84.5q0 59 -12.5 83t-40.5 24z" />
<glyph unicode="&#x2074;" horiz-adv-x="265" d="M155 478v48h-140v55l69 209h70l-73 -205h74l6 88h58v-88h26v-59h-26v-48h-64z" />
<glyph unicode="&#x2075;" horiz-adv-x="265" d="M45 790h187v-57h-134l-5 -71q24 15 57 15q94 0 94 -99q0 -53 -29 -80.5t-78 -27.5q-21 0 -48 3t-43 7l-16 3l5 55q54 -11 95 -11q47 0 47 49q0 45 -40 45q-12 0 -25 -3.5t-20 -7.5l-7 -4l-50 6z" />
<glyph unicode="&#x2076;" horiz-adv-x="265" d="M235 790l-4 -54q-50 6 -84 6q-31 0 -45.5 -17t-15.5 -56l9 3q9 3 24 7t26 4q103 0 103 -103q0 -52 -30 -82t-80 -30q-118 0 -118 162q0 88 30 129t95 41q16 0 38.5 -2.5t36.5 -5.5zM137 628l-51 -16q0 -87 50 -87q47 0 47 54q0 27 -11 38t-35 11z" />

<glyph unicode="&#x2077;" horiz-adv-x="265" d="M26 728v62h208v-77l-106 -244l-70 13l103 225v21h-135z" />
<glyph unicode="&#x2078;" horiz-adv-x="265" d="M132 800q115 0 115 -85q0 -60 -44 -74q48 -14 48 -74q0 -54 -30.5 -76.5t-88.5 -22.5q-119 0 -119 95q0 58 50 79q-45 16 -45 73q0 85 114 85zM132 523q53 0 53 44q0 34 -39 46h-27q-39 -12 -39 -49q0 -41 52 -41zM132 745q-49 0 -49 -36q0 -31 36 -44h27q36 12 36 43 q0 37 -50 37z" />
<glyph unicode="&#x2079;" horiz-adv-x="265" d="M30 480l4 53q45 -6 83 -6q63 0 63 71q-33 -12 -61 -12q-49 0 -75.5 27.5t-26.5 76.5q0 52 31 81t81 29q118 0 118 -167q0 -88 -29.5 -126.5t-94.5 -38.5q-19 0 -42 3t-37 6zM128 639q10 0 23.5 3.5t22.5 7.5l8 4q-2 88 -51 88q-48 0 -48 -51q0 -23 12 -37.5t33 -14.5z " />
<glyph unicode="&#x2080;" horiz-adv-x="265" d="M134 322q60 0 89.5 -38t29.5 -128t-30 -128t-88 -38q-59 0 -89.5 38t-30.5 128t30 128t89 38zM134 263q-28 0 -40.5 -24t-12.5 -83q0 -61 13.5 -84t40.5 -23t39.5 22.5t12.5 84.5q0 59 -12.5 83t-40.5 24z" />
<glyph unicode="&#x2081;" horiz-adv-x="265" d="M30 242l102 70h60v-312h-64v242l-68 -47z" />
<glyph unicode="&#x2082;" horiz-adv-x="265" d="M232 0h-210v56l88 86q51 49 51 83q0 36 -49 36l-84 -10l-3 59q60 12 103 12q52 0 76 -22t24 -69q0 -57 -62 -113l-61 -60h127v-58z" />
<glyph unicode="&#x2083;" horiz-adv-x="265" d="M29 312q59 10 102 10q106 0 106 -84q0 -50 -40 -75q25 -8 36.5 -24t11.5 -52q0 -97 -107 -97q-22 0 -50 2.5t-46 5.5l-17 2l5 56q56 -7 100 -7q49 0 49 41q0 42 -46 42h-66v54h65q14 0 26 13t12 31q0 33 -45 33l-91 -7z" />
<glyph unicode="&#x2084;" horiz-adv-x="265" d="M155 0v48h-140v55l69 209h70l-73 -205h74l6 88h58v-88h26v-59h-26v-48h-64z" />
<glyph unicode="&#x2085;" horiz-adv-x="265" d="M45 312h187v-57h-134l-5 -71q24 15 57 15q94 0 94 -99q0 -53 -29 -80.5t-78 -27.5q-21 0 -48 3t-43 7l-16 3l5 55q54 -11 95 -11q47 0 47 49q0 45 -40 45q-12 0 -25 -3.5t-20 -7.5l-7 -4l-50 6z" />
<glyph unicode="&#x2086;" horiz-adv-x="265" d="M235 312l-4 -54q-50 6 -84 6q-31 0 -45.5 -17t-15.5 -56l9 3q9 3 24 7t26 4q103 0 103 -103q0 -52 -30 -82t-80 -30q-118 0 -118 162q0 88 30 129t95 41q16 0 38.5 -2.5t36.5 -5.5zM137 150l-51 -16q0 -87 50 -87q47 0 47 54q0 27 -11 38t-35 11z" />
<glyph unicode="&#x2087;" horiz-adv-x="265" d="M26 250v62h208v-77l-106 -244l-70 13l103 225v21h-135z" />
<glyph unicode="&#x2088;" horiz-adv-x="265" d="M132 322q115 0 115 -85q0 -60 -44 -74q48 -14 48 -74q0 -54 -30.5 -76.5t-88.5 -22.5q-119 0 -119 95q0 58 50 79q-45 16 -45 73q0 85 114 85zM132 45q53 0 53 44q0 34 -39 46h-27q-39 -12 -39 -49q0 -41 52 -41zM132 267q-49 0 -49 -36q0 -31 36 -44h27q36 12 36 43 q0 37 -50 37z" />
<glyph unicode="&#x2089;" horiz-adv-x="265" d="M30 2l4 53q45 -6 83 -6q63 0 63 71q-33 -12 -61 -12q-49 0 -75.5 27.5t-26.5 76.5q0 52 31 81t81 29q118 0 118 -167q0 -88 -29.5 -126.5t-94.5 -38.5q-19 0 -42 3t-37 6zM128 161q10 0 23.5 3.5t22.5 7.5l8 4q-2 88 -51 88q-48 0 -48 -51q0 -23 12 -37.5t33 -14.5z" />
<glyph unicode="&#x20ac;" horiz-adv-x="555" d="M30 441h63q12 123 66 178.5t178 55.5l177 -19l-3 -69q-95 13 -166 13q-88 0 -125.5 -37t-46.5 -122l270 -1v-61h-275v-94l275 -1v-61h-270q9 -84 47 -121t127 -37l164 14l3 -70q-98 -19 -177 -19q-125 0 -179 55.5t-65 177.5h-63v62h59q-1 14 -1 46t1 48h-59v62z" />
<glyph unicode="&#x2122;" d="M7 580v50h200v-50h-66v-248h-55v248h-79zM238 331v299h71l67 -208l70 208h71v-299h-52v224l-66 -209h-43l-66 209v-224h-52z" />
<glyph unicode="&#x2211;" horiz-adv-x="833" />
<glyph unicode="&#x2212;" d="M33 262v70h462v-70h-462z" />

<glyph unicode="&#x221e;" horiz-adv-x="532" d="M147 121q-125 0 -125 171q0 83 31 127t92 44q44 0 71.5 -23t49.5 -72q21 49 48.5 72t72.5 23q61 0 92 -44t31 -127q0 -171 -125 -171q-43 0 -70 22.5t-48 70.5q-23 -54 -48 -73.5t-72 -19.5zM237 292l-10.5 24.5t-11 24.5t-11 19.5t-14 17.5t-17 9.5t-23.5 4.5 q-57 0 -57 -100t57 -100q13 0 23.5 4.5t17 9.5t14 17.5t11 19.5t11 24.5zM295 292l10.5 -24.5t11 -24.5t11 -19.5t14 -17.5t17 -9.5t23.5 -4.5q56 0 56 100t-56 100q-13 0 -23.5 -4.5t-17 -9.5t-14 -17.5t-11 -19.5t-11 -24.5z" />
<glyph unicode="&#x2248;" d="M459 441l7 -72q-6 -6 -16 -14.5t-38 -23t-52 -14.5q-31 0 -99 25t-88 25q-19 0 -44 -12t-41 -24l-16 -12l-8 71q6 6 17 15t40.5 24t54.5 15q31 0 97.5 -25t87.5 -25q17 0 41.5 12t40.5 24zM458 251l7 -72q-6 -6 -16 -14.5t-38 -23t-52 -14.5q-31 0 -99 25t-88 25 q-19 0 -44 -12t-41 -24l-16 -12l-8 71q6 6 17 15t40.5 24t54.5 15q31 0 97.5 -25t87.5 -25q17 0 41.5 12t40.5 24z" />
<glyph unicode="&#x2260;" d="M45 337v69h247l69 157l64 -26l-58 -131h123v-69h-153l-56 -128h210v-70h-240l-69 -156l-64 26l57 130h-129v70h159l57 128h-217z" />
<glyph unicode="&#x2264;" d="M435 467l-283 -108l283 -115v-81l-355 147v94l355 142v-79zM80 40v74h355v-74h-355z" />
<glyph unicode="&#x2265;" d="M382 359l-287 108v79l359 -142v-94l-359 -147v81zM95 40v74h359v-74h-359z" />
<glyph unicode="&#xe000;" horiz-adv-x="500" d="M0 500h500v-500h-500v500z" />
<glyph horiz-adv-x="235" />
<glyph horiz-adv-x="538" d="M308 509q99 0 134.5 -56.5t35.5 -191.5q0 -147 -47 -208.5t-181 -61.5l-149 9v730h35v-261q83 40 172 40zM249 23q62 0 100.5 13.5t58.5 45.5t26.5 72t6.5 105q0 119 -26.5 168.5t-106.5 49.5q-40 0 -83 -10t-66 -20l-23 -10v-408q78 -6 113 -6z" />
<glyph horiz-adv-x="627" d="M103 700h240q102 0 152 -41t50 -129q0 -133 -97 -169q124 -34 124 -165q0 -108 -54 -152t-156 -44h-259v700zM354 341h-215v-307h223q83 0 128 36.5t45 125.5q0 145 -181 145zM343 666h-204v-292h215q80 0 117 39t37 117q0 72 -40 104t-125 32z" />
<glyph horiz-adv-x="480" d="M35 500h37l146 -468h43l147 468h37l-157 -500h-98z" />
<glyph horiz-adv-x="456" d="M207 250l-169 250h40l150 -223l150 223h40l-169 -250l169 -250h-41l-149 223l-149 -223h-41z" />
<glyph d="M452 651l-4 -33q-72 18 -156 18q-102 0 -155 -66t-53 -218q0 2 28 15.5t76 28t87 14.5q209 0 209 -202q0 -217 -214 -217q-115 0 -169.5 87t-54.5 259q0 180 63.5 256.5t182.5 76.5zM273 376q-88 -3 -188 -58l-2 -1q2 -146 46 -219t141 -73q95 0 135.5 45t40.5 138 q0 81 -39 124.5t-134 43.5z" />
<glyph d="M74 12l6 32q82 -19 166 -19q101 0 151 67.5t50 221.5q0 -2 -28 -15.5t-76 -28t-87 -14.5q-106 0 -157.5 53t-51.5 144q0 103 55 160t163 57q113 0 166 -86.5t53 -259.5q0 -181 -60 -257t-178 -76q-37 0 -80 5.5t-68 10.5zM258 290q88 3 188 58l2 1q-5 287 -183 287 q-180 0 -180 -183q0 -74 42 -118.5t131 -44.5z" />
<glyph horiz-adv-x="653" d="M389 0h-286v700h286q59 0 102 -35t63.5 -91t29.5 -109t9 -105q0 -39 -3.5 -78t-16 -92.5t-33 -93.5t-60 -68t-91.5 -28zM555 360q0 34 -7 78.5t-23 99.5t-51.5 91.5t-84.5 36.5h-250v-632h250q44 0 77 28t49.5 65t26 88t11.5 82.5t2 62.5z" />
<glyph d="M480 0h-377v700h36v-666h341v-34z" />
<glyph horiz-adv-x="0" />
<glyph d="M135 702q54 0 80 -31.5t26 -102.5q0 -138 -106 -138q-54 0 -80 33.5t-26 105.5q0 70 25.5 101.5t80.5 31.5zM416 272q54 0 80 -31.5t26 -102.5q0 -138 -106 -138q-54 0 -80 33.5t-26 105.5q0 70 25.5 101.5t80.5 31.5zM186 6l144 695l36 -7l-144 -695zM64 569 q0 -54 16 -80.5t55 -26.5q40 0 55.5 26t15.5 80q0 53 -15.5 77.5t-55.5 24.5q-39 0 -55 -24.5t-16 -76.5zM345 139q0 -54 16 -80.5t55 -26.5q40 0 55.5 26t15.5 80q0 53 -15.5 77.5t-55.5 24.5q-39 0 -55 -24.5t-16 -76.5z" />

<glyph d="M434 519h-137l42 -129l-32 -10l-42 130l-110 -79l-19 27l110 80l-109 80l20 27l110 -81l42 129l32 -10l-42 -130h135v-34z" />
<glyph horiz-adv-x="260" d="M102 750h35q-11 -29 -26.5 -77.5t-42 -168t-26.5 -203.5q0 -167 87 -405l8 -21h-35q-11 25 -27 68t-43 156t-27 202t24.5 201t48.5 180z" />
<glyph horiz-adv-x="260" d="M31 -120h-35q11 29 26.5 77.5t42 168t26.5 203.5q0 167 -87 405l-8 21h35q11 -25 27 -68t43 -156t27 -202t-24 -201t-48 -180z" />
<glyph horiz-adv-x="285" d="M139 169l-7 -116q0 -72 30.5 -106.5t112.5 -38.5l-2 -32q-95 4 -135.5 45.5t-40.5 131.5q0 21 3.5 66.5t3.5 56.5q0 49 -23.5 75.5t-80.5 42.5v32q57 14 80.5 42t23.5 78q0 13 -3.5 60.5t-3.5 67.5q0 90 40.5 131.5t135.5 45.5l2 -32q-82 -4 -112.5 -38.5t-30.5 -106.5 q0 -17 3.5 -61t3.5 -58q0 -65 -22 -95.5t-78 -48.5q56 -18 78 -49t22 -93z" />
<glyph horiz-adv-x="944" d="M328 -9q-80 0 -133 22t-82.5 69.5t-41 110t-11.5 154.5q0 184 58 273t210 89q108 0 147 -9h409v-36h-373v-286h313v-36h-313v-306h373v-36h-407v-1q-35 -8 -149 -8zM328 25q106 0 147 9v629q-39 12 -147 12q-70 0 -116 -21t-70.5 -65.5t-34 -101t-9.5 -140.5 q0 -85 9 -140t33.5 -98.5t70.5 -63.5t117 -20zM476 663h-1l1 -332v332z" />
<glyph horiz-adv-x="833" d="M414 0v212h-185v32h185v233h-185v32h185v191h35v-191h185v-32h-185v-233h185v-32h-185v-212h-35z" />
<glyph horiz-adv-x="386" d="M371 551q0 -45 -20.5 -84.5t-49.5 -68t-58.5 -54.5t-50 -55.5t-20.5 -60.5v-38h-35v41q0 34 20.5 66.5t50 59.5l58.5 55t49.5 64t20.5 75q0 69 -40.5 97t-124.5 28l-161 -28l-5 34q112 27 166 27q99 0 149.5 -36.5t50.5 -121.5zM135 1v80h40v-80h-40z" />
<glyph horiz-adv-x="141" d="M25 344v80h40v-80h-40zM25 0v80h40v-80h-40z" />
<glyph horiz-adv-x="170" d="M-6 -123l41 210h42l-52 -210h-31zM32 344v80h40v-80h-40z" />
<glyph horiz-adv-x="300" d="M231 749v-32h-147v-808h147v-32h-182l-1 872h183z" />
<glyph horiz-adv-x="300" d="M51 717v32h183l-1 -872h-182v32h147v808h-147z" />
<glyph horiz-adv-x="100" d="M-18 460l-2 230h119l-5 -230h-112z" />
<glyph horiz-adv-x="355" d="M35 460l-2 230h119l-5 -230h-112zM193 460l-2 230h119l-5 -230h-112z" />
<glyph horiz-adv-x="700" d="M303 694q78 0 115.5 -39t37.5 -106q0 -72 -38 -112.5t-127 -69.5l187 -185q20 58 31 146h35q-14 -108 -39 -172l140 -137l-24 -26l-131 130q-66 -132 -222 -132q-126 0 -178 55t-52 162q0 89 38 132.5t125 68.5q-32 35 -41.5 65t-9.5 76q0 65 39 104.5t114 39.5zM270 24 q137 0 194 124l-237 235q-86 -23 -120 -60t-34 -114q0 -93 46 -139t151 -46zM185 550q0 -78 45 -123l36 -36q87 30 121 63t34 96q0 112 -118 112t-118 -112z" />
<glyph horiz-adv-x="570" d="M463 668v-32q-87 12 -120 12q-54 0 -78 -30.5t-24 -116.5v-95h182v-32h-182v-340h174l82 16l7 -32l-81 -17l-309 -1v34h92v340h-69v32h69v95q0 104 32.5 141.5t104.5 37.5z" />
<glyph horiz-adv-x="593" d="M68 427h64q10 128 64 189t182 61q95 0 175 -19l-3 -35q-91 20 -172 20q-111 0 -155.5 -52t-52.5 -164l311 -1v-33h-313q-1 -20 -1 -62q0 -36 1 -52l313 -1v-33h-312q8 -115 52.5 -167.5t156.5 -52.5l172 20l3 -34q-96 -20 -175 -20q-128 0 -182.5 61t-63.5 193h-64v34h62 q-1 16 -1 52q0 42 1 62h-62v34z" />
<glyph horiz-adv-x="833" d="M582 14l-35 -14l-301 687l35 14z" />

<glyph horiz-adv-x="520" d="M27 -34h428v-34h-428v34z" />
<glyph horiz-adv-x="615" d="M358 257h-219v-257h-36v700h255q106 0 156.5 -50t50.5 -161q0 -112 -47 -172t-160 -60zM139 291h219q169 0 169 198q0 92 -41.5 134.5t-127.5 42.5h-219v-375z" />
<glyph d="M3 334v36h336v-36h-336zM151 483v80h40v-80h-40zM151 139v80h40v-80h-40z" />
<glyph horiz-adv-x="410" d="M-49 234v34h232v232h36v-232h234v-34h-234v-234h-36v234h-232z" />
<glyph horiz-adv-x="440" d="M60 264v34h320v-34h-320z" />
<glyph d="M410 520l-315 -206l315 -217v-41q-313 213 -347 238v36l347 229v-39z" />
<glyph d="M1 343v34h505v-34h-505zM2 174v34h505v-34h-505z" />
<glyph d="M378 314l-315 206v39l347 -229v-36l-347 -238v41z" />
<glyph d="M46 12l277 690l33 -14l-277 -689z" />
<glyph horiz-adv-x="876" d="M618 23l182 9l2 -32q-112 -9 -185 -9q-131 1 -169 107q-18 -56 -61 -81.5t-122 -25.5q-122 0 -163.5 58t-41.5 212q0 138 46.5 193t158.5 55q146 0 184 -120q44 120 182 120q95 0 142.5 -57t47.5 -183v-33h-355q0 -108 34 -160.5t118 -52.5zM265 23q54 0 87.5 13.5t50 46 t21.5 71.5t5 105q0 118 -39.5 168t-124.5 50q-97 0 -132.5 -45.5t-35.5 -170.5q0 -70 5.5 -110.5t23.5 -72t51 -43.5t88 -12zM466 268h318q0 113 -36.5 161t-116.5 48q-165 0 -165 -209z" />
<glyph horiz-adv-x="898" d="M429 0v215h-276l-78 -215h-40l251 700h552v-34h-373v-288h313v-34h-313v-310h373v-34h-409zM314 666l-149 -417h264v417h-115z" />
<glyph horiz-adv-x="656" d="M89 -98l60 129q-57 38 -80 115t-23 201q0 184 58 273t210 89q82 0 140 -28l52 111l33 -14l-55 -116q54 -42 76 -119t22 -196q0 -191 -56.5 -273.5t-211.5 -82.5q-79 0 -134 23l-58 -125zM84 347q0 -112 17.5 -180t63.5 -103l273 584q-48 27 -124 27q-70 0 -116 -21 t-70.5 -65.5t-34 -101t-9.5 -140.5zM314 25q72 0 117.5 18.5t70 61t33.5 98.5t9 144q0 210 -76 280l-273 -581q47 -21 119 -21z" />
<glyph horiz-adv-x="828" d="M570 23l182 9l2 -32q-112 -9 -185 -9q-99 1 -143 58l-38 -16q-93 -42 -206 -42q-127 0 -127 146q0 70 31 101t107 43l190 20v52q0 122 -111 122l-188 -9l-2 33q110 10 190 10q115 0 139 -96q49 96 172 96q95 0 142.5 -57t47.5 -183v-33h-355q0 -108 34 -160.5t118 -52.5z M183 23q42 0 97 12t84.5 22t46.5 17q-30 59 -30 176v18l-184 -18q-55 -5 -80 -32t-25 -81q0 -55 24 -84.5t67 -29.5zM418 268h318q0 113 -36.5 161t-116.5 48q-165 0 -165 -209z" />
<glyph d="M262 509q105 0 159.5 -59.5t54.5 -207.5q0 -138 -56 -194.5t-157 -56.5q-99 0 -156 57t-57 195q0 266 212 266zM263 444q-70 0 -106 -42.5t-36 -157.5q0 -106 36 -147t107 -41t106 40t35 146q0 117 -34.5 159.5t-107.5 42.5z" />
<glyph d="M93 386l189 114h63v-500h-71v419l-152 -90z" />
<glyph d="M460 0h-371v63l171 141q63 50 88 82.5t25 71.5q0 47 -28 65.5t-94 18.5q-22 0 -61 -4.5t-67.5 -8.5t-28.5 -5l-5 64q107 21 181 21q178 0 178 -143q0 -58 -26.5 -96t-85.5 -84l-151 -121h275v-65z" />
<glyph d="M104 492q104 18 180 18q88 0 133.5 -29t45.5 -96q0 -16 -3 -29.5t-8 -24t-12.5 -20t-13.5 -15.5t-14.5 -11.5t-13.5 -8l-11.5 -6t-7.5 -3.5q44 -14 71.5 -42t27.5 -84q0 -75 -50 -112.5t-137 -37.5q-37 0 -85.5 5t-78.5 10l-30 5l9 64q104 -15 185 -15q116 1 116 85 q0 46 -31 63.5t-83 20.5h-126v63h125q43 2 71.5 20.5t28.5 58.5t-26.5 56t-80.5 16l-173 -15z" />

<glyph d="M336 -20v113h-278v55l156 352h75l-153 -339h200v133h71v-133h53v-68h-53v-113h-71z" />
<glyph d="M115 502h343v-72h-279l-13 -144q68 31 130 31q182 0 182 -153q0 -83 -49 -128t-138 -45q-36 0 -86.5 6t-82.5 12l-32 6l9 64q118 -20 190 -20q113 0 113 101q0 91 -114 91q-57 0 -137 -35l-54 12z" />
<glyph d="M443 494l-5 -60q-88 12 -152 12q-67 0 -103.5 -38t-36.5 -128q0 1 23 10t58.5 18t60.5 9q183 0 183 -160q0 -80 -53.5 -123.5t-147.5 -43.5q-194 0 -194 264q0 255 210 255q34 0 73 -3.5t61 -7.5zM282 251q-58 -1 -136 -31q3 -167 128 -167q126 0 126 104q0 50 -28.5 72 t-89.5 22z" />
<glyph d="M71 437v64h343v-85l-214 -425l-62 18l207 408v20h-274z" />
<glyph d="M259 509q193 0 193 -132q0 -82 -89 -115q48 -19 73 -46t25 -82q0 -144 -202 -144q-200 0 -200 140q0 55 23.5 82.5t70.5 49.5q-84 35 -84 116q0 131 190 131zM259 52q65 0 98 19t33 68q0 42 -22 60.5t-69 30.5h-84q-43 -11 -64 -32.5t-21 -62.5q0 -46 33.5 -64.5 t95.5 -18.5zM259 447q-60 0 -89.5 -17.5t-29.5 -56.5q0 -36 17.5 -54.5t57.5 -30.5h84q42 10 62 29t20 55q0 75 -122 75z" />
<glyph d="M85 9l6 60q81 -14 151 -14q137 0 137 167q-70 -34 -136 -34q-88 0 -133 40t-45 115q0 79 51 123t138 44q198 0 198 -259q0 -260 -210 -260q-35 0 -74.5 4.5t-61.5 8.5zM248 251q64 3 129 33q-3 163 -125 163q-116 0 -116 -103q0 -93 112 -93z" />
<glyph d="M242 -59v759h35v-759h-35z" />
<glyph horiz-adv-x="437" d="M186 -86v127q-92 5 -133 49t-41 157q0 195 174 212v132h35v-130l116 -11l-2 -35q-75 9 -114 10v-348l116 8l2 -35q-79 -9 -118 -9v-127h-35zM52 247q0 -95 29 -130t105 -39v345q-67 -7 -100.5 -49t-33.5 -127z" />
<glyph d="M61 340v34h247l72 163l35 -14l-66 -149h137v-34h-152l-66 -151h219v-34h-234l-72 -165l-35 14l66 151h-150v34h165l66 151h-232z" />
<glyph horiz-adv-x="540" d="M47 331v34h171l-193 295h41l205 -309l202 309h42l-191 -295h168v-34h-190l-13 -20v-95h204v-34h-204v-182h-36v182h-205v34h205v95l-13 20h-193z" />
<glyph d="M90 -250v750h35v-258q0 -132 24 -175.5t105 -43.5q84 0 162 49l2 1v427h35v-500h-35v40l-24 -13.5t-58.5 -22t-81.5 -13.5q-94 0 -129 51v-292h-35z" />
<glyph d="M289 352v-418q0 -97 -31.5 -138t-95.5 -41l-92 3l2 33q62 -3 90 -3q46 0 69 33.5t23 112.5v418h-69v32h69v111q0 178 127 178l93 -3l-2 -32q-61 2 -91 2q-92 0 -92 -146v-110h162v-32h-162z" />
<glyph horiz-adv-x="170" d="M-6 -123l42 210h40l-51 -210h-31z" />
<glyph horiz-adv-x="248" d="M98 0v80h40v-80h-40z" />
<glyph horiz-adv-x="170" d="M4 527l40 200h38l-48 -200h-30z" />
<glyph horiz-adv-x="833" d="M518 0v667h-172v-667h-36v350h-7q-79 0 -132.5 48.5t-53.5 125.5t53.5 126.5t132.5 49.5h348v-33h-97v-667h-36z" />
<glyph horiz-adv-x="285" d="M135 454l7 116q0 72 -30.5 106.5t-112.5 38.5l2 32q95 -4 135.5 -45.5t40.5 -131.5q0 -21 -3.5 -66.5t-3.5 -56.5q0 -49 23.5 -75.5t80.5 -42.5v-32q-57 -14 -80.5 -42t-23.5 -78q0 -13 3.5 -60.5t3.5 -67.5q0 -90 -40.5 -131.5t-135.5 -45.5l-2 32q82 4 112.5 38.5 t30.5 106.5q0 17 -3.5 61t-3.5 58q0 65 22 95.5t78 48.5q-56 18 -78 49t-22 93z" />

<glyph horiz-adv-x="170" d="M56 727l-40 -200h-38l48 200h30z" />
<glyph horiz-adv-x="0" d="M333 672q239 0 239 -167q0 -19 -1.5 -34t-8.5 -29t-10 -21t-16.5 -20.5l-16.5 -16.5t-22.5 -18.5t-22.5 -17.5q7 -6 30.5 -23.5t31.5 -26t22 -27t19 -40.5t5 -52q0 -105 -65 -148t-184 -43q-246 0 -246 180q0 27 5 49.5t11 36.5t19.5 29.5t21 22.5t26.5 21.5t26 20.5 l-20 16t-19.5 16l-16 14.5t-15 16.5t-11 17.5t-9.5 22l-4.5 24.5t-2.5 31q0 166 235 166zM333 130q101 0 101 74q0 50 -55 76h-88q-32 -15 -44 -33t-12 -43q0 -74 98 -74zM335 530q-51 0 -70 -14.5t-19 -45.5q0 -7 0.5 -12t3 -10t4 -7.5t6.5 -7t7.5 -6t11 -7t12.5 -8.5h88 q4 3 11 7.5t9.5 6.5t7.5 5.5t6.5 6t4.5 6t3.5 7t1.5 8.5t1 11q0 32 -19 46t-70 14z" />
<glyph horiz-adv-x="358" d="M214 639v-140h123v-121h-123v-189q0 -30 1.5 -42.5t11 -21.5t29.5 -9l76 2l6 -115q-67 -15 -102 -15q-90 0 -123 40.5t-33 149.5v200h-59v121h59v130z" />
<glyph horiz-adv-x="440" d="M60 225v112h320v-112h-320z" />
<glyph horiz-adv-x="248" d="M45 0v142h132v-142h-132z" />
<glyph d="M1 313v132h505v-132h-505zM1 106v132h506v-132h-506z" />
<glyph horiz-adv-x="520" d="M27 15h428v-132h-428v132z" />
<glyph horiz-adv-x="339" d="M253 171q0 -14 -3.5 -51.5t-3.5 -54.5q0 -41 13 -57t58 -20v-112q-109 4 -152.5 46t-43.5 133q0 21 3.5 66.5t3.5 56.5q0 59 -104 88v92q104 26 104 90q0 13 -3.5 60.5t-3.5 67.5q0 91 43.5 131t152.5 44v-112q-46 -4 -58.5 -18.5t-12.5 -54.5q0 -17 3.5 -56t3.5 -53 q0 -66 -22 -95.5t-78 -48.5q57 -19 78.5 -48t21.5 -94z" />
<glyph horiz-adv-x="285" d="M-43 452q0 14 3.5 51.5t3.5 54.5q0 41 -13 57t-58 20v112q109 -4 152.5 -46t43.5 -133q0 -21 -3.5 -66.5t-3.5 -56.5q0 -59 104 -88v-92q-104 -26 -104 -90q0 -13 3.5 -60.5t3.5 -67.5q0 -91 -43.5 -131t-152.5 -44v112q46 4 58.5 18.5t12.5 54.5q0 17 -3.5 56t-3.5 53 q0 66 22 95.5t78 48.5q-57 19 -78.5 48t-21.5 94z" />
<glyph horiz-adv-x="410" d="M-49 190v122h189v188h122v-188h191v-122h-191v-190h-122v190h-189z" />
<glyph horiz-adv-x="265" d="M134 222q60 0 89.5 -38t29.5 -128t-30 -128t-88 -38q-59 0 -89.5 38t-30.5 128t30 128t89 38zM134 163q-28 0 -40.5 -24t-12.5 -83q0 -61 13.5 -84t40.5 -23t39.5 22.5t12.5 84.5q0 59 -12.5 83t-40.5 24z" />
<glyph horiz-adv-x="265" d="M30 142l102 70h60v-312h-64v242l-68 -47z" />
<glyph horiz-adv-x="265" d="M232 -100h-210v56l88 86q51 49 51 83q0 36 -49 36l-84 -10l-3 59q60 12 103 12q52 0 76 -22t24 -69q0 -57 -62 -113l-61 -60h127v-58z" />
<glyph horiz-adv-x="265" d="M29 212q59 10 102 10q106 0 106 -84q0 -50 -40 -75q25 -8 36.5 -24t11.5 -52q0 -97 -107 -97q-22 0 -50 2.5t-46 5.5l-17 2l5 56q56 -7 100 -7q49 0 49 41q0 42 -46 42h-66v54h65q14 0 26 13t12 31q0 33 -45 33l-91 -7z" />
<glyph horiz-adv-x="265" d="M155 -100v48h-140v55l69 209h70l-73 -205h74l6 88h58v-88h26v-59h-26v-48h-64z" />
<glyph horiz-adv-x="265" d="M45 212h187v-57h-134l-5 -71q24 15 57 15q94 0 94 -99q0 -53 -29 -80.5t-78 -27.5q-21 0 -48 3t-43 7l-16 3l5 55q54 -11 95 -11q47 0 47 49q0 45 -40 45q-12 0 -25 -3.5t-20 -7.5l-7 -4l-50 6z" />
<glyph horiz-adv-x="265" d="M235 212l-4 -54q-50 6 -84 6q-31 0 -45.5 -17t-15.5 -56l9 3q9 3 24 7t26 4q103 0 103 -103q0 -52 -30 -82t-80 -30q-118 0 -118 162q0 88 30 129t95 41q16 0 38.5 -2.5t36.5 -5.5zM137 50l-51 -16q0 -87 50 -87q47 0 47 54q0 27 -11 38t-35 11z" />

<glyph horiz-adv-x="265" d="M26 150v62h208v-77l-106 -244l-70 13l103 225v21h-135z" />
<glyph horiz-adv-x="265" d="M132 222q115 0 115 -85q0 -60 -44 -74q48 -14 48 -74q0 -54 -30.5 -76.5t-88.5 -22.5q-119 0 -119 95q0 58 50 79q-45 16 -45 73q0 85 114 85zM132 -55q53 0 53 44q0 34 -39 46h-27q-39 -12 -39 -49q0 -41 52 -41zM132 167q-49 0 -49 -36q0 -31 36 -44h27q36 12 36 43 q0 37 -50 37z" />
<glyph horiz-adv-x="265" d="M30 -98l4 53q45 -6 83 -6q63 0 63 71q-33 -12 -61 -12q-49 0 -75.5 27.5t-26.5 76.5q0 52 31 81t81 29q118 0 118 -167q0 -88 -29.5 -126.5t-94.5 -38.5q-19 0 -42 3t-37 6zM128 61q10 0 23.5 3.5t22.5 7.5l8 4q-2 88 -51 88q-48 0 -48 -51q0 -23 12 -37.5t33 -14.5z" />
<glyph horiz-adv-x="744" d="M86 0v114h81v-114h-81zM340 0v114h82v-114h-82zM595 0v114h81v-114h-81z" />
<glyph horiz-adv-x="386" d="M8 -37q0 47 19.5 87t47.5 66.5t56 49t47.5 47.5t19.5 51v38h79v-41q0 -35 -19.5 -66.5t-47.5 -55.5l-55.5 -47.5t-47 -55t-19.5 -66.5q0 -57 30.5 -80.5t101.5 -23.5q22 0 61.5 6t67.5 12l28 6l9 -74q-114 -27 -168 -27q-108 0 -159 40t-51 134zM278 499v-114h-82v114h82 z" />
<glyph horiz-adv-x="386" d="M14 163q0 47 19.5 87t47.5 66.5t56 49t47.5 47.5t19.5 51v38h79v-41q0 -35 -19.5 -66.5t-47.5 -55l-55.5 -47.5t-47 -55.5t-19.5 -66.5q0 -57 30.5 -80.5t101.5 -23.5q22 0 61.5 6t67.5 12l28 6l9 -74q-114 -27 -168 -27q-108 0 -159 40t-51 134zM284 699v-114h-82v114 h82z" />
<glyph horiz-adv-x="386" d="M14 163q0 47 19.5 87t47.5 66.5t56 49t47.5 47.5t19.5 51v38h79v-41q0 -35 -19.5 -66.5t-47.5 -55l-55.5 -47.5t-47 -55.5t-19.5 -66.5q0 -57 30.5 -80.5t101.5 -23.5q22 0 61.5 6t67.5 12l28 6l9 -74q-114 -27 -168 -27q-108 0 -159 40t-51 134zM284 699v-114h-82v114 h82z" />
<glyph horiz-adv-x="500" d="M0 336h500v-70h-500v70z" />
<glyph horiz-adv-x="1000" d="M0 336h1000v-70h-1000v70z" />
<glyph horiz-adv-x="248" d="M77 279v114h81v-114h-81z" />
<glyph d="M312 619v-114h-82v114h82zM310 387l2 -467h-81l2 467h77z" />
<glyph horiz-adv-x="260" d="M133 780h79q-11 -29 -26.5 -77.5t-42 -168t-26.5 -203.5q0 -167 87 -405l8 -21h-79q-11 25 -27 68t-43 156t-27 202t24 201t48 180z" />
<glyph horiz-adv-x="260" d="M111 -90h-79q11 29 26.5 77.5t42 168t26.5 203.5q0 167 -87 405l-8 21h79q11 -25 27 -68t43 -156t27 -202t-24 -201t-48 -180z" />
<glyph horiz-adv-x="300" d="M251 779v-72h-134v-728h134v-72h-210v872h210z" />
<glyph horiz-adv-x="300" d="M39 707v72h210v-872h-210v72h134v728h-134z" />
<glyph horiz-adv-x="307" d="M189 200q0 -3 -3.5 -49t-3.5 -67q0 -55 23.5 -80.5t90.5 -29.5l-1 -72q-102 4 -147 45t-45 130q0 21 3.5 66t3.5 56q0 44 -22 69.5t-78 40.5v64q56 14 78 39t22 69q0 13 -3.5 60.5t-3.5 67.5q0 92 44.5 132t147.5 44l1 -72q-67 -4 -90.5 -28.5t-23.5 -79.5q0 -17 3.5 -63 t3.5 -60q0 -62 -22 -92t-78 -48q55 -18 77.5 -49t22.5 -93z" />
<glyph horiz-adv-x="307" d="M111 483q0 3 3.5 49t3.5 67q0 55 -23.5 80.5t-90.5 29.5l1 72q102 -4 147 -45t45 -130q0 -21 -3.5 -66t-3.5 -56q0 -44 22 -69.5t78 -40.5v-64q-56 -14 -78 -39t-22 -69q0 -13 3.5 -60.5t3.5 -67.5q0 -92 -44.5 -132t-147.5 -44l-1 72q67 4 90.5 28.5t23.5 79.5 q0 17 -3.5 63t-3.5 60q0 62 22 92t78 48q-55 18 -77.5 49t-22.5 93z" />

<glyph horiz-adv-x="236" d="M36 935l218 -94l-25 -62l-221 87z" />
<glyph horiz-adv-x="236" d="M46 935l218 -94l-25 -62l-221 87z" />
<glyph horiz-adv-x="236" d="M10 845l218 95l27 -70l-220 -86z" />
<glyph horiz-adv-x="236" d="M12 845l218 95l27 -70l-220 -86z" />
<glyph horiz-adv-x="462" d="M54 799l133 135h67l133 -135h-87l-79 75l-78 -75h-89z" />
<glyph horiz-adv-x="236" d="M-29 799l133 135h67l133 -135h-87l-79 75l-78 -75h-89z" />
<glyph horiz-adv-x="236" d="M298 932l-133 -134h-66l-134 134h89l78 -76l79 76h87z" />
<glyph horiz-adv-x="236" d="M297 932l-133 -134h-66l-134 134h89l78 -76l79 76h87z" />
<glyph horiz-adv-x="236" d="M298 924l18 -57q-52 -58 -92 -58q-25 0 -87 28t-76 28q-11 0 -31 -12.5t-34 -24.5l-15 -12l-18 57q56 60 97 60q28 0 89 -27.5t73 -27.5q9 0 28 11.5t34 22.5z" />
<glyph horiz-adv-x="236" d="M298 924l18 -57q-52 -58 -92 -58q-25 0 -87 28t-76 28q-11 0 -31 -12.5t-34 -24.5l-15 -12l-18 57q56 60 97 60q28 0 89 -27.5t73 -27.5q9 0 28 11.5t34 22.5z" />
<glyph horiz-adv-x="236" d="M-15 820v90h73v-90h-73zM192 820v90h72v-90h-72z" />
<glyph horiz-adv-x="236" d="M-15 820v90h73v-90h-73zM192 820v90h72v-90h-72z" />
<glyph horiz-adv-x="236" d="M-22 816v66h311v-66h-311z" />
<glyph horiz-adv-x="236" d="M-22 816v66h311v-66h-311z" />
<glyph horiz-adv-x="236" d="M-21 926h77q1 -31 23.5 -49t56.5 -18q35 0 57.5 18t23.5 49h77q-3 -59 -46 -95t-112 -36t-111.5 36t-45.5 95z" />
<glyph horiz-adv-x="236" d="M-21 926h77q1 -31 23.5 -49t56.5 -18q35 0 57.5 18t23.5 49h77q-3 -59 -46 -95t-112 -36t-111.5 36t-45.5 95z" />
<glyph horiz-adv-x="236" d="M250 782q0 -50 -33 -78t-85 -28q-53 0 -86 28t-33 78q0 49 33.5 77t85.5 28t85 -28t33 -77zM74 782q0 -24 15.5 -37.5t42.5 -13.5q26 0 41.5 13.5t15.5 37.5t-15 37t-42 13t-42.5 -13t-15.5 -37z" />

<glyph horiz-adv-x="236" d="M244 782q0 -50 -33 -78t-85 -28q-53 0 -86 28t-33 78q0 49 33.5 77t85.5 28t85 -28t33 -77zM68 782q0 -24 15.5 -37.5t42.5 -13.5q26 0 41.5 13.5t15.5 37.5t-15 37t-42 13t-42.5 -13t-15.5 -37z" />
<glyph horiz-adv-x="236" d="M157 789l142 131l59 -36l-146 -129zM-44 789l142 132l58 -36l-145 -129z" />
<glyph horiz-adv-x="236" d="M157 789l142 131l59 -36l-146 -129zM-44 789l142 132l58 -36l-145 -129z" />
<glyph horiz-adv-x="236" d="M81 781v87h74v-87h-74z" />
<glyph horiz-adv-x="236" d="M81 781v87h74v-87h-74z" />
<glyph horiz-adv-x="265" d="M134 700q60 0 89.5 -38t29.5 -128t-30 -128t-88 -38q-59 0 -89.5 38t-30.5 128t30 128t89 38zM134 641q-28 0 -40.5 -24t-12.5 -83q0 -61 13.5 -84t40.5 -23t39.5 22.5t12.5 84.5q0 59 -12.5 83t-40.5 24z" />
<glyph horiz-adv-x="265" d="M26 620l102 70h60v-312h-64v242l-68 -47z" />
<glyph horiz-adv-x="265" d="M232 378h-210v56l88 86q51 49 51 83q0 36 -49 36l-84 -10l-3 59q60 12 103 12q52 0 76 -22t24 -69q0 -57 -62 -113l-61 -60h127v-58z" />
<glyph horiz-adv-x="265" d="M29 690q59 10 102 10q106 0 106 -84q0 -50 -40 -75q25 -8 36.5 -24t11.5 -52q0 -97 -107 -97q-22 0 -50 2.5t-46 5.5l-17 2l5 56q56 -7 100 -7q49 0 49 41q0 42 -46 42h-66v54h65q14 0 26 13t12 31q0 33 -45 33l-91 -7z" />
<glyph horiz-adv-x="265" d="M155 378v48h-140v55l69 209h70l-73 -205h74l6 88h58v-88h26v-59h-26v-48h-64z" />
<glyph horiz-adv-x="265" d="M45 690h187v-57h-134l-5 -71q24 15 57 15q94 0 94 -99q0 -53 -29 -80.5t-78 -27.5q-21 0 -48 3t-43 7l-16 3l5 55q54 -11 95 -11q47 0 47 49q0 45 -40 45q-12 0 -25 -3.5t-20 -7.5l-7 -4l-50 6z" />
<glyph horiz-adv-x="265" d="M235 690l-4 -54q-50 6 -84 6q-31 0 -45.5 -17t-15.5 -56l9 3q9 3 24 7t26 4q103 0 103 -103q0 -52 -30 -82t-80 -30q-118 0 -118 162q0 88 30 129t95 41q16 0 38.5 -2.5t36.5 -5.5zM137 528l-51 -16q0 -87 50 -87q47 0 47 54q0 27 -11 38t-35 11z" />
<glyph horiz-adv-x="265" d="M26 628v62h208v-77l-106 -244l-70 13l103 225v21h-135z" />
<glyph horiz-adv-x="265" d="M132 700q115 0 115 -85q0 -60 -44 -74q48 -14 48 -74q0 -54 -30.5 -76.5t-88.5 -22.5q-119 0 -119 95q0 58 50 79q-45 16 -45 73q0 85 114 85zM132 423q53 0 53 44q0 34 -39 46h-27q-39 -12 -39 -49q0 -41 52 -41zM132 645q-49 0 -49 -36q0 -31 36 -44h27q36 12 36 43 q0 37 -50 37z" />
<glyph horiz-adv-x="265" d="M30 380l4 53q45 -6 83 -6q63 0 63 71q-33 -12 -61 -12q-49 0 -75.5 27.5t-26.5 76.5q0 52 31 81t81 29q118 0 118 -167q0 -88 -29.5 -126.5t-94.5 -38.5q-19 0 -42 3t-37 6zM128 539q10 0 23.5 3.5t22.5 7.5l8 4q-2 88 -51 88q-48 0 -48 -51q0 -23 12 -37.5t33 -14.5z " />
</font>
</defs>
</svg>
